Шкала агрессии / The Aggression Scale (Стивен С. Миллер / Steven C. Miller) [2012, США, ужасы, триллер, боевик, криминал, BDRemux 1080p] VO (Хихикающий доктор) + Original Eng

Reply to topic
 
Author
Message

Satyr ®

Gender: Unknown

Longevity: 11 years

Posts: 15402

Reputation: 55 [+] [-]

Satyr · Post 07-Mar-2013 01:11

[Quote] 

Шкала агрессии / The Aggression Scale Год выпуска: 2012
Страна: США
Жанр: ужасы, триллер, боевик, криминал
Продолжительность: 01:25:16.896
Перевод: Одноголосый закадровый Хихикающий доктор
Оригинальная аудиодорожка: Английская
Субтитры: нет
Студия: Snowfort Pictures, Site B, Epic Pictures Group
Режиссёр: Стивен С. Миллер / Steven C. Miller
В ролях: Фаббианн Терез, Райан Хартвиг, Дэна Эшбрук, Дерек Мирс, Джейкоб Рейнольдс, Джозеф МакКелхир, Бойд Кестнер, Лиза Ротонди, Рэй Уайз, Эбен Костбар и др.
Описание: Босс мафии обнаруживает, что у него украли полмиллиона долларов и отправляет четырех наемных убийц отправить «сообщение» семьям похитителей. Однако в одном из домов гангстеры встречают подростка по имени Оуэн. Оуэн имеет склонность к насилию и умеет создавать смертельные ловушки.
  • Кинопоиск
  • IMDB
  • Blu-ray.com
  • Сэмпл
    Качество: BDRemux 1080p
    Контейнер: MKV
    Видео кодек: MPEG-4 AVC Video
    Аудио кодек: Dolby Digital Audio / DTS-HD Master Audio
    Видео: MPEG-4 AVC Video / 19881 kbps / 1920x1080p / 23,976 fps / 16:9 / High Profile 4.1
    Аудио 1: Русский / Dolby Digital Audio / 192 kbps / 2.0 / 48 kHz / 16-bit (VO Хихикающий доктор)
    Аудио 2: English / DTS-HD Master Audio / 1985 kbps / 5.1 / 48 kHz / 16-bit (DTS Core: 5.1 / 48 kHz / 1509 kbps / 16-bit) (Оригинал)
    Навигация по главам: да

Скриншоты с названием фильма

MediaInfo

Z:\torrentsland.com.ua\The.Aggression.Scale.2012.German.1080p.DL.DTSHD.MA.BluRay.AVC.Remux-pmHD\Шкала агрессии (The Aggression Scale), США, 2012, ужасы, триллер, боевик, криминал, BDRemux 1080p GORENOISE.mkv
General
Unique ID : 233092739807233852472488688845018200701 (0xAF5C075B98B3322FB2A76A5582E17A7D)
Complete name : Z:\torrentsland.com.ua\The.Aggression.Scale.2012.German.1080p.DL.DTSHD.MA.BluRay.AVC.Remux-pmHD\Шкала агрессии (The Aggression Scale), США, 2012, ужасы, триллер, боевик, криминал, BDRemux 1080p GORENOISE.mkv
Format : Matroska
Format version : Version 4 / Version 2
File size : 13.1 GiB
Duration : 1h 25mn
Overall bit rate mode : Variable
Overall bit rate : 22.1 Mbps
Movie name : GORENOISE
Encoded date : UTC 2010-02-22 21:41:31
Writing application : mkvmerge v5.9.0 ('On The Loose') built on Dec 9 2012 15:37:01
Writing library : libebml v1.3.0 + libmatroska v1.4.0
Video #1
ID : 1
Format : AVC
Format/Info : Advanced Video Codec
Format profile : High@L4.1
Format settings, CABAC : Yes
Format settings, ReFrames : 4 frames
Codec ID : V_MPEG4/ISO/AVC
Duration : 1h 25mn
Bit rate mode : Variable
Bit rate : 19.9 Mbps
Maximum bit rate : 33.0 Mbps
Width : 1 920 pixels
Height : 1 080 pixels
Display aspect ratio : 16:9
Frame rate mode : Constant
Frame rate : 23.976 fps
Color space : YUV
Chroma subsampling : 4:2:0
Bit depth : 8 bits
Scan type : Progressive
Bits/(Pixel*Frame) : 0.399
Stream size : 11.8 GiB (90%)
Title : GORENOISE
Language : English
Default : Yes
Forced : No
Audio #2
ID : 2
Format : AC-3
Format/Info : Audio Coding 3
Mode extension : CM (complete main)
Format settings, Endianness : Big
Codec ID : A_AC3
Duration : 1h 25mn
Bit rate mode : Constant
Bit rate : 192 Kbps
Channel(s) : 2 channels
Channel positions : Front: L R
Sampling rate : 48.0 KHz
Bit depth : 16 bits
Compression mode : Lossy
Stream size : 117 MiB (1%)
Title : Одноголосый закадровый Хихикающий доктор
Language : Russian
Default : Yes
Forced : No
Audio #3
ID : 3
Format : DTS
Format/Info : Digital Theater Systems
Format profile : MA / Core
Codec ID : A_DTS
Duration : 1h 25mn
Bit rate mode : Variable
Bit rate : 1 576 Kbps / 1 510 Kbps
Channel(s) : 6 channels
Channel positions : Front: L C R, Side: L R, LFE
Sampling rate : 48.0 KHz
Bit depth : 16 bits
Compression mode : Lossless / Lossy
Title : Оригинал
Language : English
Default : No
Forced : No
Menu
00:00:00.000 : en:00:00:00.000
00:09:22.437 : en:00:09:22.437
00:13:36.733 : en:00:13:36.733
00:21:00.509 : en:00:21:00.509
00:27:29.857 : en:00:27:29.857
00:33:21.750 : en:00:33:21.750
00:41:29.904 : en:00:41:29.904
00:49:32.428 : en:00:49:32.428
00:57:43.043 : en:00:57:43.043
01:03:16.167 : en:01:03:16.167
01:11:15.104 : en:01:11:15.104
01:22:10.008 : en:01:22:10.008

Полноразмерный постер

[Profile]  [PM] 
Display posts:    
Reply to topic

Current time is: 03-Jun 15:14

All times are UTC + 2



You cannot post new topics in this forum
You cannot reply to topics in this forum
You cannot edit your posts in this forum
You cannot delete your posts in this forum
You cannot vote in polls in this forum
You cannot attach files in this forum
You cannot download files in this forum