Ищу друга на конец света / Seeking a Friend for the End of the World (Лорин Скафария / Lorene Scafaria) [2012, фантастика, драма, мелодрама, BD Remux 1080p] Dub + original (eng) + sub (eng)

Reply to topic
 
Author
Message

Satyr ®

Gender: Unknown

Longevity: 11 years

Posts: 15402

Reputation: 55 [+] [-]

Satyr · Post 23-Mar-2013 22:48

[Quote] 

Ищу друга на конец светаSeeking a Friend for the End of the World«Любовь подкралась незаметно...»- Страна: США, Сингапур, Малайзия, Индонезия
Жанр: фантастика, драма, мелодрама, комедия
Год выпуска: 2012
Продолжительность: 01:41:02-Перевод: Профессиональный (полное дублирование)
Субтитры: английские-Режиссер: Лорин Скафария / Lorene Scafaria
В ролях:
Стив Карелл (Dodge), Кира Найтли (Penny), Адам Броди (Owen), Дерек Люк (Speck), Уильям Л. Питерсен (Trucker), Роб Кордри (Warren), Мартин Шин (Frank), Тонита Кастро (Elsa), Мелани Лински (Karen), Пэттон Освальт (Roache), Брэд Моррис (Radio Announcer), Нэнси Уоллс (Linda)
Дублёры: Илья Бледный (Owen), Сергей Чихачев (Trucker), Дмитрий Филимонов (Warren), Рудольф Панков (Frank), Диомид Виноградов (Roache), Борис Быстров, Василий Дахненко, Даниил Щебланов, Денис Шведов, Екатерина Виноградова, Елена Соловьева, Илья Хвостиков
Описание: К Земле приближается огромный астероид. В такой момент большинство мужчин пустилось бы во все тяжкие. Но только не Додж. Он отправляется на поиски школьной подружки в компании сексуальной соседки Пенни.

MPAA: R - Лицам до 17 лет обязательно присутствие взрослого-Источник: HQFans
Качество: BD Remux
Контейнер: MKV-Семпл-Видео: 1920x1080, AVC, 23,976 fps, 31166 kbps
Аудио №1: русский / AC3 / 5.1 / 48 kHz / 448 kbps / 16 bit || Профессиональный (полное дублирование), R5
Аудио №2: английский / DTS-HD / 5.1 / 48 kHz / 3237 kbps / 24 bit (Core: 5.1 / 48 kHz / 1510 kbps / 24 bit)
Субтитры: английские
Навигация по главам: есть- -

Media Info

Format : Matroska
Format version : Version 2
File size : 24.5 GiB
Duration : 1h 41mn
Overall bit rate mode : Variable
Overall bit rate : 34.7 Mbps
Movie name : Ищу друга на конец света__Seeking a Friend for the End of the World [2012.BDRemux.Dub.Eng.Sub]-HQFans
Encoded date : UTC 2012-10-11 18:45:36
Writing application : mkvmerge v5.8.0 ('No Sleep / Pillow') built on Sep 2 2012 15:37:04
Writing library : libebml v1.2.3 + libmatroska v1.3.0
Video
ID : 1
Format : AVC
Format/Info : Advanced Video Codec
Format profile : High@L4.1
Format settings, CABAC : Yes
Format settings, ReFrames : 4 frames
Format settings, GOP : M=3, N=12
Codec ID : V_MPEG4/ISO/AVC
Duration : 1h 41mn
Bit rate mode : Variable
Bit rate : 31.2 Mbps
Maximum bit rate : 35.0 Mbps
Width : 1 920 pixels
Height : 1 080 pixels
Display aspect ratio : 16:9
Frame rate : 23.976 fps
Color space : YUV
Chroma subsampling : 4:2:0
Bit depth : 8 bits
Scan type : Progressive
Bits/(Pixel*Frame) : 0.627
Stream size : 22.0 GiB (90%)
Title : Remux by HQFans
Default : Yes
Forced : No
Audio #1
ID : 2
Format : AC-3
Format/Info : Audio Coding 3
Mode extension : CM (complete main)
Codec ID : A_AC3
Duration : 1h 41mn
Bit rate mode : Constant
Bit rate : 448 Kbps
Channel(s) : 6 channels
Channel positions : Front: L C R, Side: L R, LFE
Sampling rate : 48.0 KHz
Bit depth : 16 bits
Compression mode : Lossy
Stream size : 324 MiB (1%)
Title : Dub {R5} [AC3 5.1@448kbps/16-bit]
Language : Russian
Default : No
Forced : No
Audio #2
ID : 3
Format : DTS
Format/Info : Digital Theater Systems
Format profile : MA / Core
Codec ID : A_DTS
Duration : 1h 41mn
Bit rate mode : Variable
Bit rate : 2 419 Kbps / 1 510 Kbps
Channel(s) : 6 channels
Channel positions : Front: L C R, Side: L R, LFE
Sampling rate : 48.0 KHz
Bit depth : 24 bits
Compression mode : Lossless / Lossy
Title : Original [DTS-HD MA 5.1@3237kbps/24-bit]
Language : English
Default : Yes
Forced : No
Text
ID : 4
Format : UTF-8
Codec ID : S_TEXT/UTF8
Codec ID/Info : UTF-8 Plain Text
Language : English
Default : No
Forced : No
Menu
00:00:00.000 : :Chapter 01
00:04:28.017 : :Chapter 02
00:10:30.546 : :Chapter 03
00:16:37.329 : :Chapter 04
00:21:35.043 : :Chapter 05
00:24:58.079 : :Chapter 06
00:31:22.589 : :Chapter 07
00:35:11.400 : :Chapter 08
00:40:37.685 : :Chapter 09
00:45:17.840 : :Chapter 10
00:50:00.622 : :Chapter 11
00:54:46.700 : :Chapter 12
01:01:06.412 : :Chapter 13
01:05:32.011 : :Chapter 14
01:13:14.181 : :Chapter 15
01:17:37.611 : :Chapter 16
01:21:50.280 : :Chapter 17
01:25:44.889 : :Chapter 18
01:28:24.966 : :Chapter 19
01:33:57.089 : :Chapter 20
01:41:01.805 : :Chapter 21
[Profile]  [PM] 
Display posts:    
Reply to topic

Current time is: 03-Jun 13:32

All times are UTC + 2



You cannot post new topics in this forum
You cannot reply to topics in this forum
You cannot edit your posts in this forum
You cannot delete your posts in this forum
You cannot vote in polls in this forum
You cannot attach files in this forum
You cannot download files in this forum