Другой Мир: Квадрология / Underworld: Quadrilogy (Манс Марлинд, Бьёрн Стейн, Лен Уайзман, Патрик Татопулос) [2003,2006,2009, 2012, ужасы, боевик, триллер, фэнтези, BDRip 720p]

Reply to topic
 
Author
Message

LORN-V ®

Gender: Male

Longevity: 7 years 1 month

Posts: 904

Reputation: 5 [+] [-]

Location: Munchen

LORN-V · Post 09-Apr-2013 15:59

[Quote] 


-Русское название: Другой Мир: [Квадрология]
Оригинальное название: Underworld: [Quadrilogy]
Год выпуска: 2003 | 2006 | 2009 | 2012
Жанр: ужасы, боевик, фэнтези
Режиссер: Лен Вайзмэн, Патрик Татопулос
Актеры: Кейт Бекинсейл, Скотт Спидман, и др...
Продолжительность: 02:13:36 | 01:46:24 | 01:32:28 | 01:28:34
Качество видео: BDRip 720-

«ДРУГОЙ МИР» | «UNDERWORLD»

- -Год выпуска: 2003
Страна: США, Германия, Великобритания, Венгрия
Жанр: фэнтези, боевик, триллер
Продолжительность: 02:13:37
Перевод: Профессиональный (полное дублирование)
Режиссер: Лен Уайзман
В ролях: Кейт Бекинсейл, Скотт Спидман, Майкл Шин, Шэйн Бролли, Билл Найи, Эрвин Ледер, София Майлс, Робби Ги, Вентворт Миллер, Кевин Гревье- - -Столетиями властители царства мрака, вампиры и оборотни ведут беспощадную войну, невидимую человеческому взору. Бесстрашная Селина, воин-вампир, каждую ночь истребляет оборотней, влекомая неутолимой жаждой мести. Ее клан уверен, что вампирам удалось одержать верх над заклятыми врагами, но Селина подозревает, что у оборотней есть тайный план, сулящий гибель ее роду.
В центре этого плана — смертный парень Майкл. Его генетический код — ключ к созданию сверхсущества, которое будет бессмертно и неуязвимо. Теперь Селина должна любой ценой первой добраться до него, чтобы определить исход вечного противостояния двух могущественных рас, которых люди до сих пор считали мифом…- -Качество: BDRip 720p
Формат: MKV
Видео кодек: MPEG-4 AVC
Аудио кодек: AC3,DTS
Видео: 1280x540 at 23.976 fps, ~7635 kb/s,13,4 Мбит/сек
Аудио#1: Russian: AC3, 3/2 (L,C,R,l,r) + LFE ch, ~448.00 kb/s |Дубляж,R5|
Аудио#2: Ukrainian: DTS, 3/2 (L,C,R,l,r) + LFE ch, ~768.00 kb/s |Многоголосый закадровый|
Аудио#3: Russian: DTS, 3/2 (L,C,R,l,r) + LFE ch, ~1536.00 kb/s |Многоголосый закадровый, Киномания|
Аудио#4: Russian: DTS, 3/2 (L,C,R,l,r) + LFE ch, ~1536.00 kb/s |Одноголосый закадровый| Гаврилов|
Аудио#5: English: DTS, 3/2 (L,C,R,l,r) + LFE ch, ~1536 kb/s-
-

Скриншоты

MediaInfo

Общее
Уникальный идентификатор : 249054117800196235204094044089521260307 (0xBB5E140D11F43C38B72F836629B3C713)
Полное имя : D:Underworld_QuadrilogyДругой мир 2003.mkv
Формат : Matroska
Версия формата : Version 2
Размер файла : 12,5 Гбайт
Продолжительность : 2 ч. 13 м.
Общий поток : 13,4 Мбит/сек
Название фильма : Underworld. Extended Cut [2003] - Release for HDCLUB
Дата кодирования : UTC 2012-04-17 19:57:08
Программа кодирования : mkvmerge v4.6.0 ('Still Crazy After All These Years') сборка от Mar 10 2011 02:50:32
Библиотека кодирования : libebml v1.2.0 + libmatroska v1.1.0
Видео
Идентификатор : 1
Формат : AVC
Формат/Информация : Advanced Video Codec
Профиль формата : High@L4.1
Параметр CABAC формата : Да
Параметр ReFrames формата : 9 кадров
Режим смешивания : Header stripping
Идентификатор кодека : V_MPEG4/ISO/AVC
Продолжительность : 2 ч. 13 м.
Битрейт : 7635 Кбит/сек
Ширина : 1280 пикселей
Высота : 540 пикселей
Соотношение сторон : 2,40:1
Режим частоты кадров : Постоянный
Частота кадров : 23,976 кадра/сек
Цветовое пространство : YUV
Субдискретизация насыщенности : 4:2:0
Битовая глубина : 8 бит
Тип развёртки : Прогрессивная
Бит/(Пиксели*Кадры) : 0.461
Размер потока : 6,87 Гбайт (55%)
Заголовок : Release for HDCLUB
Библиотека кодирования : x264 core 67 r1139M 1024283
Настройки программы : cabac=1 / ref=9 / deblock=1:-3:-3 / analyse=0x3:0x113 / me=umh / subme=9 / psy_rd=0.7:0.4 / mixed_ref=1 / me_range=32 / chroma_me=1 / trellis=2 / 8x8dct=1 / cqm=0 / deadzone=21,11 / chroma_qp_offset=-4 / threads=6 / nr=0 / decimate=0 / mbaff=0 / bframes=7 / b_pyramid=1 / b_adapt=2 / b_bias=0 / direct=3 / wpredb=1 / keyint=250 / keyint_min=25 / scenecut=40 / rc=2pass / bitrate=7635 / ratetol=1.0 / qcomp=0.60 / qpmin=10 / qpmax=51 / qpstep=4 / cplxblur=20.0 / qblur=0.5 / vbv_maxrate=40000 / vbv_bufsize=30000 / ip_ratio=1.40 / pb_ratio=1.30 / aq=1:0.80
Язык : English
Default : Да
Forced : Нет
Аудио #1
Идентификатор : 2
Формат : AC-3
Формат/Информация : Audio Coding 3
Расширение режима : CM (complete main)
Параметр Endianness формата : Big
Режим смешивания : Header stripping
Идентификатор кодека : A_AC3
Продолжительность : 2 ч. 13 м.
Вид битрейта : Постоянный
Битрейт : 448 Кбит/сек
Каналы : 6 каналов
Расположение каналов : Front: L C R, Side: L R, LFE
Частота : 48,0 КГц
Битовая глубина : 16 бит
Метод сжатия : С потерями
Размер потока : 428 Мбайт (3%)
Заголовок : AC3 5.1 448 Kbps [Дубляж]
Язык : Russian
Default : Да
Forced : Нет
Аудио #2
Идентификатор : 3
Формат : DTS
Формат/Информация : Digital Theater Systems
Режим : 16
Параметр Endianness формата : Big
Режим смешивания : Header stripping
Идентификатор кодека : A_DTS
Продолжительность : 2 ч. 13 м.
Вид битрейта : Постоянный
Битрейт : 755 Кбит/сек
Каналы : 6 каналов
Расположение каналов : Front: L C R, Side: L R, LFE
Частота : 48,0 КГц
Битовая глубина : 24 бит
Метод сжатия : С потерями
Размер потока : 721 Мбайт (6%)
Заголовок : DTS 5.1 768 Kbps [Многоголосый, ICTV]
Язык : Ukrainian
Default : Нет
Forced : Нет
Аудио #3
Идентификатор : 4
Формат : DTS
Формат/Информация : Digital Theater Systems
Режим : 16
Параметр Endianness формата : Big
Режим смешивания : Header stripping
Идентификатор кодека : A_DTS
Продолжительность : 2 ч. 13 м.
Вид битрейта : Постоянный
Битрейт : 1510 Кбит/сек
Каналы : 6 каналов
Расположение каналов : Front: L C R, Side: L R, LFE
Частота : 48,0 КГц
Битовая глубина : 24 бит
Метод сжатия : С потерями
Размер потока : 1,41 Гбайт (11%)
Заголовок : DTS 5.1 1536 Kbps [Многоголосый, Киномания]
Язык : Russian
Default : Нет
Forced : Нет
Аудио #4
Идентификатор : 5
Формат : DTS
Формат/Информация : Digital Theater Systems
Режим : 16
Параметр Endianness формата : Big
Режим смешивания : Header stripping
Идентификатор кодека : A_DTS
Продолжительность : 2 ч. 13 м.
Вид битрейта : Постоянный
Битрейт : 1510 Кбит/сек
Каналы : 6 каналов
Расположение каналов : Front: L C R, Side: L R, LFE
Частота : 48,0 КГц
Битовая глубина : 24 бит
Метод сжатия : С потерями
Размер потока : 1,41 Гбайт (11%)
Заголовок : DTS 5.1 1536 Kbps [Одноголосый, А.Гаврилов]
Язык : Russian
Default : Нет
Forced : Нет
Аудио #5
Идентификатор : 6
Формат : DTS
Формат/Информация : Digital Theater Systems
Режим : 16
Параметр Endianness формата : Big
Режим смешивания : Header stripping
Идентификатор кодека : A_DTS
Продолжительность : 2 ч. 13 м.
Вид битрейта : Постоянный
Битрейт : 1510 Кбит/сек
Каналы : 6 каналов
Расположение каналов : Front: L C R, Side: L R, LFE
Частота : 48,0 КГц
Битовая глубина : 16 бит
Метод сжатия : С потерями
Размер потока : 1,41 Гбайт (11%)
Заголовок : DTS 5.1 1536 Kbps [Оригинал]
Язык : English
Default : Нет
Forced : Нет
Текст #1
Идентификатор : 7
Формат : UTF-8
Идентификатор кодека : S_TEXT/UTF8
Идентификатор кодека/Информация : UTF-8 Plain Text
Заголовок : Киномания
Язык : Russian
Default : Нет
Forced : Нет
Текст #2
Идентификатор : 8
Формат : UTF-8
Идентификатор кодека : S_TEXT/UTF8
Идентификатор кодека/Информация : UTF-8 Plain Text
Заголовок : На непереведенные моменты
Язык : Ukrainian
Default : Нет
Forced : Нет
Текст #3
Идентификатор : 9
Формат : UTF-8
Идентификатор кодека : S_TEXT/UTF8
Идентификатор кодека/Информация : UTF-8 Plain Text
Язык : English
Default : Нет
Forced : Нет
--

«ДРУГОЙ МИР: ЭВОЛЮЦИЯ» | «UNDERWORLD: EVOLUTION»

- -Год выпуска: 2005
Страна: США
Жанр: фэнтези, боевик, триллер
Продолжительность: 01:46:24
Перевод: Профессиональный (полное дублирование)
Режиссер: Лен Уайзман
В ролях: Кейт Бекинсейл, Скотт Спидман, Тони Карран, Дерек Джекоби, Билл Найи, Стивен Макинтош, Шэйн Бролли, Брайан Стил, Зита Горог, Скотт МакЭлрой- - -В зловещем ночном мире, скрытом от взора простых смертных, не утихает беспощадная борьба между двумя кланами властителей мрака — вампирами и оборотнями. Настала пора узнать об истоках вековой вражды, ставшей для вампира-воительницы Селин и Майкла, полуоборотня-получеловека, проклятьем и смыслом существования.
Сражаясь с могущественными врагами из обоих кланов, древними магистрами смерти, они познают кровавую интригу и запретную любовь, чтобы в сумраке ночи раскрыть тайну своего происхождения и своего наследия. Их ждет великая битва, которая покончит с вечным противостоянием — последняя схватка ради окончания всех войн, в которой бессмертные должны понести кару и расплатиться за свои злодеяния…- -Качество: BDRip 720
Формат: MKV
Видео кодек: MPEG-4 AVC
Аудио кодек: DTS
Видео: 1280x534 at 23.976 fps, ~ 4279 kb/s,8799 Кбит/сек
Аудио#1: Russian: DTS 5.1 48kHz ~768.00 kb/s |Дубляж|
Аудио#2: Russian: DTS 5.1 48kHz ~1536 kb/s |Многоголосый закадровый, Киномания|
Аудио#3: Russian: DTS 5.1 48kHz ~768 kb/s |Одноголосый закадровый| AVO-Королёв|
Аудио#4: English: DTS 5.1 48kHz ~1536 kb/s-
-

Скриншоты

MediaInfo

Общее
Уникальный идентификатор : 238893840604713487128139471694462548690 (0xB3B947B59E5841F0A250DAEF62097AD2)
Полное имя : D:Underworld_QuadrilogyДругой мир 2006.mkv
Формат : Matroska
Версия формата : Version 2
Размер файла : 6,54 Гбайт
Продолжительность : 1 ч. 46 м.
Общий поток : 8799 Кбит/сек
Дата кодирования : UTC 2012-04-17 19:30:58
Программа кодирования : mkvmerge v4.6.0 ('Still Crazy After All These Years') сборка от Mar 10 2011 02:50:32
Библиотека кодирования : libebml v1.2.0 + libmatroska v1.1.0
Видео
Идентификатор : 1
Формат : AVC
Формат/Информация : Advanced Video Codec
Профиль формата : High@L4.1
Параметр CABAC формата : Да
Параметр ReFrames формата : 8 кадров
Режим смешивания : Header stripping
Идентификатор кодека : V_MPEG4/ISO/AVC
Продолжительность : 1 ч. 46 м.
Битрейт : 4279 Кбит/сек
Ширина : 1280 пикселей
Высота : 534 пикселя
Соотношение сторон : 2,40:1
Режим частоты кадров : Постоянный
Частота кадров : 23,976 кадра/сек
Цветовое пространство : YUV
Субдискретизация насыщенности : 4:2:0
Битовая глубина : 8 бит
Тип развёртки : Прогрессивная
Бит/(Пиксели*Кадры) : 0.261
Размер потока : 3,04 Гбайт (47%)
Заголовок : x264
Библиотека кодирования : x264 core 76 r1271 496d79d
Настройки программы : cabac=1 / ref=8 / deblock=1:-3:-3 / analyse=0x3:0x113 / me=tesa / subme=10 / psy=1 / psy_rd=1.0:0.0 / mixed_ref=1 / me_range=32 / chroma_me=1 / trellis=2 / 8x8dct=1 / cqm=0 / deadzone=21,11 / chroma_qp_offset=-2 / threads=6 / nr=0 / decimate=1 / mbaff=0 / bframes=6 / b_pyramid=1 / b_adapt=2 / b_bias=0 / direct=3 / wpredb=1 / keyint=250 / keyint_min=25 / scenecut=40 / rc=2pass / mbtree=0 / bitrate=4279 / ratetol=1.0 / qcomp=0.60 / qpmin=10 / qpmax=51 / qpstep=4 / cplxblur=20.0 / qblur=0.5 / ip_ratio=1.40 / pb_ratio=1.30 / aq=1:0.80
Язык : English
Default : Да
Forced : Нет
Аудио #1
Идентификатор : 2
Формат : DTS
Формат/Информация : Digital Theater Systems
Режим : 16
Параметр Endianness формата : Big
Режим смешивания : Header stripping
Идентификатор кодека : A_DTS
Продолжительность : 1 ч. 46 м.
Вид битрейта : Постоянный
Битрейт : 755 Кбит/сек
Каналы : 6 каналов
Расположение каналов : Front: L C R, Side: L R, LFE
Частота : 48,0 КГц
Битовая глубина : 24 бит
Метод сжатия : С потерями
Размер потока : 574 Мбайт (9%)
Заголовок : DTS 5.1 768kbps (Dub)
Язык : Russian
Default : Да
Forced : Нет
Аудио #2
Идентификатор : 3
Формат : DTS
Формат/Информация : Digital Theater Systems
Режим : 16
Параметр Endianness формата : Big
Режим смешивания : Header stripping
Идентификатор кодека : A_DTS
Продолжительность : 1 ч. 46 м.
Вид битрейта : Постоянный
Битрейт : 1510 Кбит/сек
Каналы : 6 каналов
Расположение каналов : Front: L C R, Side: L R, LFE
Частота : 48,0 КГц
Битовая глубина : 24 бит
Метод сжатия : С потерями
Размер потока : 1,12 Гбайт (17%)
Заголовок : DTS 5.1 1536kbps (MVO) - Киномания
Язык : Russian
Default : Нет
Forced : Нет
Аудио #3
Идентификатор : 4
Формат : DTS
Формат/Информация : Digital Theater Systems
Режим : 16
Параметр Endianness формата : Big
Режим смешивания : Header stripping
Идентификатор кодека : A_DTS
Продолжительность : 1 ч. 46 м.
Вид битрейта : Постоянный
Битрейт : 755 Кбит/сек
Каналы : 6 каналов
Расположение каналов : Front: L C R, Side: L R, LFE
Частота : 48,0 КГц
Битовая глубина : 24 бит
Метод сжатия : С потерями
Задержка видео : 300 мс.
Размер потока : 574 Мбайт (9%)
Заголовок : DTS 5.1 768kbps (AVO) - Королев
Язык : Russian
Default : Нет
Forced : Нет
Аудио #4
Идентификатор : 5
Формат : DTS
Формат/Информация : Digital Theater Systems
Режим : 16
Параметр Endianness формата : Big
Режим смешивания : Header stripping
Идентификатор кодека : A_DTS
Продолжительность : 1 ч. 46 м.
Вид битрейта : Постоянный
Битрейт : 1510 Кбит/сек
Каналы : 6 каналов
Расположение каналов : Front: L C R, Side: L R, LFE
Частота : 48,0 КГц
Битовая глубина : 24 бит
Метод сжатия : С потерями
Размер потока : 1,12 Гбайт (17%)
Заголовок : DTS 5.1 1536kbps (Оригинал)
Язык : English
Default : Нет
Forced : Нет
Текст #1
Идентификатор : 6
Формат : UTF-8
Идентификатор кодека : S_TEXT/UTF8
Идентификатор кодека/Информация : UTF-8 Plain Text
Заголовок : 1 вариант
Язык : Russian
Default : Нет
Forced : Нет
Текст #2
Идентификатор : 7
Формат : UTF-8
Идентификатор кодека : S_TEXT/UTF8
Идентификатор кодека/Информация : UTF-8 Plain Text
Заголовок : 2 вариант
Язык : Russian
Default : Нет
Forced : Нет
Текст #3
Идентификатор : 8
Формат : UTF-8
Идентификатор кодека : S_TEXT/UTF8
Идентификатор кодека/Информация : UTF-8 Plain Text
Язык : English
Default : Да
Forced : Нет
Меню
00:00:00.000 : en:Chapter 01
00:09:46.002 : en:Chapter 02
00:12:20.782 : en:Chapter 03
00:17:17.787 : en:Chapter 04
00:23:11.974 : :Chapter 05
00:33:47.901 : en:Chapter 06
00:38:57.293 : en:Chapter 07
00:43:31.651 : en:Chapter 08
00:49:11.782 : en:Chapter 09
00:56:43.817 : en:Chapter 10
01:03:08.785 : en:Chapter 11
01:10:31.936 : en:Chapter 12
01:17:17.007 : en:Chapter 13
01:21:26.256 : en:Chapter 14
01:28:43.276 : en:Chapter 15
01:32:11.067 : en:Chapter 16
--

«ДРУГОЙ МИР: ВОССТАНИЕ ЛИКАНОВ» | «UNDERWORLD: RISE OF THE LYCANS»

- -Год выпуска: 2008
Страна: США, Новая Зеландия
Жанр: фэнтези, боевик, триллер, приключения
Продолжительность: 01:32:28
Перевод: Профессиональный (полное дублирование)
Режиссер: Патрик Татопулос
В ролях: Майкл Шин, Билл Найи, Рона Митра, Стивен Макинтош, Кевин Гревье, Дэвид Эстон, Джеральдин Брофи, Лейтон Кардно, Алекс Кэрролл, Элизабет Хоторн- - -История, прослеживающая происхождение вековой кровной мести, между аристократическими вампирами, известными как Торговцы смертью и их рабами. Молодой ликан по имени Люциан — мощный лидер, который сплачивает оборотней, чтобы выступить против Виктора, жестокого короля вампиров, который поработил их. К Люциану присоединяется Соня, и помогает ему в его борьбе против смертоносной армии торговцев смертью и борьбе за свободу ликанов.- -Качество: BDRip 720
Формат: MKV
Видео кодек: MPEG-4 AVC
Аудио кодек: AC3,DTS
Видео: 1280x534 at 23.976 fps, ~8624 Kb/s,10,9 Мбит/сек
Аудио#1: Russian:AC3, 3/2 (L,C,R,l,r) + LFE ch, ~384.00 kb/s |Дубляж|
Аудио#2: Ukrainian: AC3, 3/2 (L,C,R,l,r) + LFE ch, ~384 kb/s |Дубляж|
Аудио#3: English: DTS, 3/2 ~1536 kb/s-
-

Скриншоты

MediaInfo

Общее
Уникальный идентификатор : 205810971815182546440628697781303439298 (0x9AD5C0587D189CE48DC101E568CAEFC2)
Полное имя : D:Underworld_QuadrilogyДругой мир 2009.mkv
Формат : Matroska
Версия формата : Version 2
Размер файла : 7,04 Гбайт
Продолжительность : 1 ч. 32 м.
Общий поток : 10,9 Мбит/сек
Название фильма : Underworld: Rise of the Lycans (2009) - Release for HDCLUB
Дата кодирования : UTC 2012-04-17 17:54:19
Программа кодирования : mkvmerge v4.6.0 ('Still Crazy After All These Years') сборка от Mar 10 2011 02:50:32
Библиотека кодирования : libebml v1.2.0 + libmatroska v1.1.0
Attachment : Yes / Yes / Yes
Видео
Идентификатор : 1
Формат : AVC
Формат/Информация : Advanced Video Codec
Профиль формата : High@L4.1
Параметр CABAC формата : Да
Параметр ReFrames формата : 12 кадров
Режим смешивания : Header stripping
Идентификатор кодека : V_MPEG4/ISO/AVC
Продолжительность : 1 ч. 32 м.
Битрейт : 8624 Кбит/сек
Ширина : 1280 пикселей
Высота : 534 пикселя
Соотношение сторон : 2,40:1
Режим частоты кадров : Постоянный
Частота кадров : 23,976 кадра/сек
Цветовое пространство : YUV
Субдискретизация насыщенности : 4:2:0
Битовая глубина : 8 бит
Тип развёртки : Прогрессивная
Бит/(Пиксели*Кадры) : 0.526
Размер потока : 5,43 Гбайт (77%)
Заголовок : Release for HDCLUB
Библиотека кодирования : x264 core 67 r1145M d2e1e1c
Настройки программы : cabac=1 / ref=12 / deblock=1:-3:-3 / analyse=0x3:0x113 / me=umh / subme=9 / psy_rd=1.0:0.2 / mixed_ref=1 / me_range=64 / chroma_me=1 / trellis=2 / 8x8dct=1 / cqm=0 / deadzone=21,11 / chroma_qp_offset=-3 / threads=6 / nr=0 / decimate=1 / mbaff=0 / bframes=3 / b_pyramid=1 / b_adapt=2 / b_bias=0 / direct=3 / wpredb=1 / keyint=250 / keyint_min=25 / scenecut=40 / rc=2pass / bitrate=8624 / ratetol=1.0 / qcomp=0.60 / qpmin=10 / qpmax=51 / qpstep=4 / cplxblur=20.0 / qblur=0.5 / ip_ratio=1.40 / pb_ratio=1.30 / aq=1:0.80
Язык : English
Default : Да
Forced : Нет
Аудио #1
Идентификатор : 2
Формат : AC-3
Формат/Информация : Audio Coding 3
Расширение режима : CM (complete main)
Параметр Endianness формата : Big
Режим смешивания : Header stripping
Идентификатор кодека : A_AC3
Продолжительность : 1 ч. 32 м.
Вид битрейта : Постоянный
Битрейт : 384 Кбит/сек
Каналы : 6 каналов
Расположение каналов : Front: L C R, Side: L R, LFE
Частота : 48,0 КГц
Битовая глубина : 16 бит
Метод сжатия : С потерями
Размер потока : 254 Мбайт (4%)
Заголовок : AC3 5.1 @ 384 kbps - Дублированный
Язык : Russian
Default : Да
Forced : Нет
Аудио #2
Идентификатор : 3
Формат : AC-3
Формат/Информация : Audio Coding 3
Расширение режима : CM (complete main)
Параметр Endianness формата : Big
Режим смешивания : Header stripping
Идентификатор кодека : A_AC3
Продолжительность : 1 ч. 32 м.
Вид битрейта : Постоянный
Битрейт : 384 Кбит/сек
Каналы : 6 каналов
Расположение каналов : Front: L C R, Side: L R, LFE
Частота : 48,0 КГц
Битовая глубина : 16 бит
Метод сжатия : С потерями
Размер потока : 254 Мбайт (4%)
Заголовок : AC3 5.1 @ 384 kbps - Дублированный
Язык : Ukrainian
Default : Нет
Forced : Нет
Аудио #3
Идентификатор : 4
Формат : DTS
Формат/Информация : Digital Theater Systems
Режим : 16
Параметр Endianness формата : Big
Режим смешивания : Header stripping
Идентификатор кодека : A_DTS
Продолжительность : 1 ч. 32 м.
Вид битрейта : Постоянный
Битрейт : 1510 Кбит/сек
Каналы : 6 каналов
Расположение каналов : Front: L C R, Side: L R, LFE
Частота : 48,0 КГц
Битовая глубина : 24 бит
Метод сжатия : С потерями
Размер потока : 999 Мбайт (14%)
Заголовок : DTS 5.1 @ 1536 kbps
Язык : English
Default : Нет
Forced : Нет
Текст
Идентификатор : 5
Формат : ASS
Идентификатор кодека : S_TEXT/ASS
Идентификатор кодека/Информация : Advanced Sub Station Alpha
Метод сжатия : Без потерь
Язык : English
Default : Да
Forced : Нет
--

«ДРУГОЙ МИР: ПРОБУЖДЕНИЕ» | «UNDERWORLD: AWAKEING»

- -Год выпуска: 2012
Страна: США
Жанр: ужасы, фэнтези, боевик
Продолжительность: 01:25:10
Перевод: Профессиональный (полное дублирование)
Режиссер: Монс Морлинд, Бьёрн Стейн
В ролях: Кейт Бекинсейл, Стивен Ри, Майкл Или, Тео Джеймс, Индия Айли, Чарльз Дэнс, Сандрин Холт, Кристен Холден-Рид, Джейкоб Блэр, Адам Рейд- - -Через 12 лет в состоянии, близком к коматозному, Селин узнает о существовании родной дочери Евы — гибрида вампира и ликана. И Селин необходимо помешать БиоКом создать суперликанов, которые убьют их всех.- -Качество: BDRip 720
Формат: MKV
Видео кодек: MPEG-4 AVC
Аудио кодек: AC3,DTS
Видео: 1280x534 at 23.976 fps, ~5187 Kb/s,8335 Кбит/сек
Аудио#1: Russian: AC3, 3/2 (L,C,R,l,r) + LFE ch, ~640 kb/s |Дубляж,Blu-ray CEE|
Аудио#2: Ukrainian: AC3, 3/2 (L,C,R,l,r) + LFE ch, ~640 kb/s |Дубляж,Blu-ray CEE|
Аудио#3: English: DTS, 3/2 ~1536 kb/s
Аудио#3: English: АС3, 2/0 (L,R) ch, ~192.00 kb/s |Commentary with the Filmmakers|-
-

Скриншоты

MediaInfo

Общее
Уникальный идентификатор : 254847795890064607201858492323912596272 (0xBFB9E66F59C49C4A830063033419BB30)
Полное имя : D:Underworld_QuadrilogyДругой мир 2012.mkv
Формат : Matroska
Версия формата : Version 2
Размер файла : 5,16 Гбайт
Продолжительность : 1 ч. 28 м.
Общий поток : 8335 Кбит/сек
Название фильма : Underworld: Awakening (2012) - Release for HDCLUB by extreme94 (DON)
Дата кодирования : UTC 2012-04-17 20:06:05
Программа кодирования : mkvmerge v3.4.0 ('Rapunzel') built on May 15 2010 09:38:20
Библиотека кодирования : libebml v0.8.0 + libmatroska v0.9.0
Видео
Идентификатор : 1
Формат : AVC
Формат/Информация : Advanced Video Codec
Профиль формата : High@L4.1
Параметр CABAC формата : Да
Параметр ReFrames формата : 12 кадров
Идентификатор кодека : V_MPEG4/ISO/AVC
Продолжительность : 1 ч. 28 м.
Битрейт : 5188 Кбит/сек
Ширина : 1280 пикселей
Высота : 534 пикселя
Соотношение сторон : 2,40:1
Режим частоты кадров : Постоянный
Частота кадров : 23,976 кадра/сек
Цветовое пространство : YUV
Субдискретизация насыщенности : 4:2:0
Битовая глубина : 8 бит
Тип развёртки : Прогрессивная
Бит/(Пиксели*Кадры) : 0.317
Размер потока : 3,21 Гбайт (62%)
Заголовок : Release for HDCLUB by extreme94 (DON)
Библиотека кодирования : x264 core 122 r2184 5c85e0a
Настройки программы : cabac=1 / ref=12 / deblock=1:-1:-1 / analyse=0x3:0x113 / me=umh / subme=7 / psy=1 / psy_rd=1.05:0.05 / mixed_ref=1 / me_range=32 / chroma_me=1 / trellis=1 / 8x8dct=1 / cqm=0 / deadzone=21,11 / fast_pskip=0 / chroma_qp_offset=-3 / threads=12 / sliced_threads=0 / nr=0 / decimate=0 / interlaced=0 / bluray_compat=0 / constrained_intra=0 / bframes=7 / b_pyramid=2 / b_adapt=1 / b_bias=0 / direct=1 / weightb=1 / open_gop=0 / weightp=2 / keyint=250 / keyint_min=23 / scenecut=40 / intra_refresh=0 / rc=crf / mbtree=0 / crf=18.0 / qcomp=0.60 / qpmin=0 / qpmax=69 / qpstep=4 / ip_ratio=1.40 / pb_ratio=1.30 / aq=1:1.10
Язык : English
Default : Да
Forced : Нет
Аудио #1
Идентификатор : 2
Формат : AC-3
Формат/Информация : Audio Coding 3
Расширение режима : CM (complete main)
Параметр Endianness формата : Big
Идентификатор кодека : A_AC3
Продолжительность : 1 ч. 28 м.
Вид битрейта : Постоянный
Битрейт : 640 Кбит/сек
Каналы : 6 каналов
Расположение каналов : Front: L C R, Side: L R, LFE
Частота : 48,0 КГц
Битовая глубина : 16 бит
Метод сжатия : С потерями
Размер потока : 405 Мбайт (8%)
Заголовок : AC3 5.1 640 kbps DUB, Blu-ray CEE
Язык : Russian
Default : Да
Forced : Нет
Аудио #2
Идентификатор : 3
Формат : AC-3
Формат/Информация : Audio Coding 3
Расширение режима : CM (complete main)
Параметр Endianness формата : Big
Идентификатор кодека : A_AC3
Продолжительность : 1 ч. 28 м.
Вид битрейта : Постоянный
Битрейт : 640 Кбит/сек
Каналы : 6 каналов
Расположение каналов : Front: L C R, Side: L R, LFE
Частота : 48,0 КГц
Битовая глубина : 16 бит
Метод сжатия : С потерями
Размер потока : 405 Мбайт (8%)
Заголовок : AC3 5.1 640 kbps DUB, Blu-ray CEE
Язык : Ukrainian
Default : Нет
Forced : Нет
Аудио #3
Идентификатор : 4
Формат : DTS
Формат/Информация : Digital Theater Systems
Режим : 16
Параметр Endianness формата : Big
Идентификатор кодека : A_DTS
Продолжительность : 1 ч. 28 м.
Вид битрейта : Постоянный
Битрейт : 1509 Кбит/сек
Каналы : 6 каналов
Расположение каналов : Front: L C R, Side: L R, LFE
Частота : 48,0 КГц
Битовая глубина : 16 бит
Метод сжатия : С потерями
Размер потока : 956 Мбайт (18%)
Заголовок : DTS 5.1 1536 kbps
Язык : English
Default : Нет
Forced : Нет
Аудио #4
Идентификатор : 5
Формат : AC-3
Формат/Информация : Audio Coding 3
Профиль формата : Dolby Digital
Расширение режима : CM (complete main)
Параметр Endianness формата : Big
Идентификатор кодека : A_AC3
Продолжительность : 1 ч. 28 м.
Вид битрейта : Постоянный
Битрейт : 192 Кбит/сек
Каналы : 2 канала
Расположение каналов : Front: L R
Частота : 48,0 КГц
Битовая глубина : 16 бит
Метод сжатия : С потерями
Размер потока : 122 Мбайт (2%)
Заголовок : AC3 2.0 192 kbps Commentary with the Filmmakers
Язык : English
Default : Нет
Forced : Нет
Текст #1
Идентификатор : 6
Формат : UTF-8
Идентификатор кодека : S_TEXT/UTF8
Идентификатор кодека/Информация : UTF-8 Plain Text
Язык : Russian
Default : Нет
Forced : Нет
Текст #2
Идентификатор : 7
Формат : UTF-8
Идентификатор кодека : S_TEXT/UTF8
Идентификатор кодека/Информация : UTF-8 Plain Text
Заголовок : Commentary with the Filmmakers
Язык : Russian
Default : Нет
Forced : Нет
Текст #3
Идентификатор : 8
Формат : UTF-8
Идентификатор кодека : S_TEXT/UTF8
Идентификатор кодека/Информация : UTF-8 Plain Text
Заголовок : Forced
Язык : English
Default : Нет
Forced : Нет
Текст #4
Идентификатор : 9
Формат : UTF-8
Идентификатор кодека : S_TEXT/UTF8
Идентификатор кодека/Информация : UTF-8 Plain Text
Язык : English
Default : Нет
Forced : Нет
Текст #5
Идентификатор : 10
Формат : UTF-8
Идентификатор кодека : S_TEXT/UTF8
Идентификатор кодека/Информация : UTF-8 Plain Text
Заголовок : Commentary with the Filmmakers
Язык : English
Default : Нет
Forced : Нет
Меню
00:00:00.000 : en:00:00:00.000
00:04:26.057 : en:00:04:26.057
00:07:45.340 : en:00:07:45.340
00:16:20.188 : en:00:16:20.188
00:21:11.812 : en:00:21:11.812
00:24:49.988 : en:00:24:49.988
00:30:29.828 : en:00:30:29.828
00:35:31.755 : en:00:35:31.755
00:40:04.944 : en:00:40:04.944
00:45:23.930 : en:00:45:23.930
00:52:30.731 : en:00:52:30.731
00:57:21.563 : en:00:57:21.563
01:02:53.937 : en:01:02:53.937
01:07:43.726 : en:01:07:43.726
01:12:18.501 : en:01:12:18.501
01:16:41.430 : en:01:16:41.430
--Релизы от

[Profile]  [PM] 
Display posts:    
Reply to topic

Current time is: 28-May 06:05

All times are UTC + 2



You cannot post new topics in this forum
You cannot reply to topics in this forum
You cannot edit your posts in this forum
You cannot delete your posts in this forum
You cannot vote in polls in this forum
You cannot attach files in this forum
You cannot download files in this forum