Белоснежка и охотник / Snow White and the Huntsman (2012 г., Фэнтези, Боевик, Драма, BDRip 1080p)

Reply to topic
 
Author
Message

LORN-V ®

Gender: Male

Longevity: 7 years 1 month

Posts: 904

Reputation: 5 [+] [-]

Location: Munchen

LORN-V · Post 09-Apr-2013 18:41

[Quote] 

Белоснежка и охотник / Snow White and the Huntsman- -Год выпуска: 2012
Страна: США | Universal Pictures, Roth Films
Жанр: Фэнтези, Боевик, Драма
Продолжительность: 02:11:33
Перевод: Дубляж + Оригинал
Тип релиза: Лицензия
Субтитры: Russian, English, English
Режиссер: Руперт Сандерс-В ролях: Кристен Стюарт, Крис Хемсворт, Шарлиз Терон, Сэм Клафлин, Сэм Спруэлл, Иэн МакШейн, Боб Хоскинс, Рэй Уинстон, Ник Фрост, Эдди Марсан, Тоби Джонс, Джонни Харрис, Брин Глисон, Винсент Риган, Ной Хантли, Либерти Росс ...-Описание:-Тьма приближается. Она прячется в лесах, спускается с гор, застилает небо. Никто не укроется от магического зеркала Королевы, живущей в неприступном замке, охраняемом бесчисленной армией. Но над Белоснежкой злые чары не властны. И тогда Королева отправляет Охотника, чтобы он принес ей сердце соперницы. Но очарованный Белоснежкой, он встает на ее сторону. Грядет великая битва. Лишь одна будет править.-Качество: BDRip 1080p
Формат: MKV
Видео кодек: MPEG-4 AVC/H.264
Аудио кодек: AC3/DTS
Видео: AVC, 1920x816 (2.35:1), 23.976 fps, 13.8 Mbps
Аудио#1: AC-3, 48.0 KHz, 6 ch, 448 Kbps, CBR (Russian)
Аудио#2: DTS, 48.0 KHz, 6 ch, 1 510 Kbps, CBR (English)
Аудио#3: AC-3 Dolby Digital, 48.0 KHz, 2 ch, 192 Kbps, CBR (English)|Commentary with Director Rupert Sanders, Visual Effects Supervisor Cedric Nicolas-Troyan and Co-Editor Neil Smith|
Релиз от: -

Скриншоты

MediaInfo

General
Unique ID : 207337379226502407895548879348535745775 (0x9BFBBA0A9AB5A839AD41C62C6F015CEF)
Complete name : D:\Merged Volume\Snow.White.And.The.Huntsman.2012.EXTENDED.1080p.BluRay.Rus.2xEng.HDCLUB.mkv
Format : Matroska
Format version : Version 2
File size : 14.7 GiB
Duration : 2h 11mn
Overall bit rate : 15.9 Mbps
Movie name : Snow White and the Huntsman (2012) [Extended Version] - Release for HDCLUB
Encoded date : UTC 2012-09-20 22:36:54
Writing application : mkvmerge v3.4.0 ('Rapunzel') built on May 15 2010 09:38:20
Writing library : libebml v0.8.0 + libmatroska v0.9.0
Video
ID : 1
Format : AVC
Format/Info : Advanced Video Codec
Format profile : High@L4.1
Format settings, CABAC : Yes
Format settings, ReFrames : 5 frames
Codec ID : V_MPEG4/ISO/AVC
Duration : 2h 11mn
Bit rate : 13.8 Mbps
Width : 1 920 pixels
Height : 816 pixels
Display aspect ratio : 2.35:1
Frame rate mode : Constant
Frame rate : 23.976 fps
Color space : YUV
Chroma subsampling : 4:2:0
Bit depth : 8 bits
Scan type : Progressive
Bits/(Pixel*Frame) : 0.367
Stream size : 12.4 GiB (85%)
Writing library : x264 core 125 r2208 d9d2288
Encoding settings : cabac=1 / ref=5 / deblock=1:-3:-3 / analyse=0x3:0x113 / me=umh / subme=11 / psy=1 / psy_rd=1.10:0.00 / mixed_ref=1 / me_range=48 / chroma_me=1 / trellis=2 / 8x8dct=1 / cqm=0 / deadzone=21,11 / fast_pskip=0 / chroma_qp_offset=-2 / threads=18 / lookahead_threads=3 / sliced_threads=0 / nr=0 / decimate=0 / interlaced=0 / bluray_compat=0 / constrained_intra=0 / bframes=8 / b_pyramid=2 / b_adapt=2 / b_bias=0 / direct=3 / weightb=1 / open_gop=0 / weightp=2 / keyint=240 / keyint_min=24 / scenecut=40 / intra_refresh=0 / rc_lookahead=240 / rc=2pass / mbtree=1 / bitrate=13800 / ratetol=1.0 / qcomp=0.70 / qpmin=0 / qpmax=69 / qpstep=4 / cplxblur=20.0 / qblur=0.5 / ip_ratio=1.20 / aq=2:1.10
Language : English
Default : Yes
Forced : No
Audio #1
ID : 2
Format : AC-3
Format/Info : Audio Coding 3
Mode extension : CM (complete main)
Format settings, Endianness : Big
Codec ID : A_AC3
Duration : 2h 11mn
Bit rate mode : Constant
Bit rate : 448 Kbps
Channel(s) : 6 channels
Channel positions : Front: L C R, Side: L R, LFE
Sampling rate : 48.0 KHz
Bit depth : 16 bits
Compression mode : Lossy
Stream size : 422 MiB (3%)
Title : AC3 5.1 448 kbps DUB, Blu-ray EUR
Language : Russian
Default : Yes
Forced : No
Audio #2
ID : 3
Format : DTS
Format/Info : Digital Theater Systems
Codec ID : A_DTS
Duration : 2h 11mn
Bit rate mode : Constant
Bit rate : 1 510 Kbps
Channel(s) : 6 channels
Channel positions : Front: L C R, Side: L R, LFE
Sampling rate : 48.0 KHz
Bit depth : 24 bits
Compression mode : Lossy
Delay relative to video : 11ms
Stream size : 1.39 GiB (9%)
Title : DTS 5.1 1536 kbps
Language : English
Default : No
Forced : No
Audio #3
ID : 4
Format : AC-3
Format/Info : Audio Coding 3
Format profile : Dolby Digital
Mode extension : CM (complete main)
Format settings, Endianness : Big
Codec ID : A_AC3
Duration : 2h 11mn
Bit rate mode : Constant
Bit rate : 192 Kbps
Channel(s) : 2 channels
Channel positions : Front: L R
Sampling rate : 48.0 KHz
Bit depth : 16 bits
Compression mode : Lossy
Stream size : 181 MiB (1%)
Title : AC3 2.0 192 kbps Commentary with Director Rupert Sanders, Visual Effects Supervisor Cedric Nicolas-Troyan and Co-Editor Neil Smith
Language : English
Default : No
Forced : No
Text #1
ID : 5
Format : UTF-8
Codec ID : S_TEXT/UTF8
Codec ID/Info : UTF-8 Plain Text
Language : Russian
Default : No
Forced : No
Text #2
ID : 6
Format : UTF-8
Codec ID : S_TEXT/UTF8
Codec ID/Info : UTF-8 Plain Text
Language : English
Default : No
Forced : No
Text #3
ID : 7
Format : UTF-8
Codec ID : S_TEXT/UTF8
Codec ID/Info : UTF-8 Plain Text
Title : SDH
Language : English
Default : No
Forced : No
Menu
00:00:00.000 : en:00:00:00.000
00:05:05.055 : en:00:05:05.055
00:10:26.793 : en:00:10:26.793
00:19:48.854 : en:00:19:48.854
00:27:46.456 : en:00:27:46.456
00:32:40.458 : en:00:32:40.458
00:38:04.490 : en:00:38:04.490
00:44:02.098 : en:00:44:02.098
00:51:08.649 : en:00:51:08.649
00:58:17.869 : en:00:58:17.869
01:02:08.558 : en:01:02:08.558
01:08:57.967 : en:01:08:57.967
01:13:36.537 : en:01:13:36.537
01:16:59.073 : en:01:16:59.073
01:26:57.003 : en:01:26:57.003
01:36:30.993 : en:01:36:30.993
01:43:37.795 : en:01:43:37.795
01:49:51.460 : en:01:49:51.460
01:53:44.734 : en:01:53:44.734
02:01:50.094 : en:02:01:50.094
[Profile]  [PM] 
Display posts:    
Reply to topic

Current time is: 28-May 05:46

All times are UTC + 2



You cannot post new topics in this forum
You cannot reply to topics in this forum
You cannot edit your posts in this forum
You cannot delete your posts in this forum
You cannot vote in polls in this forum
You cannot attach files in this forum
You cannot download files in this forum