Отряд героев / Company of Heroes (Дон Майкл Пол) [2013 г., боевик, военный, BDRip 720p, MVO]

Reply to topic
 
Author
Message

LORN-V ®

Gender: Male

Longevity: 7 years 1 month

Posts: 904

Reputation: 5 [+] [-]

Location: Munchen

LORN-V · Post 09-Aug-2013 15:40

[Quote] 

Отряд героев / Company of Heroes- -Основная информация:-Год выпуска: 2013
Страна: США
Жанр: боевик, военный
Продолжительность: 01:40:28
Перевод: Профессиональный многоголосый (закадровый)
Субтитры: Английские
Режиссер: Дон Майкл Пол
Продюссер: Джеффри Бич, Филлип Дж. Рот, Джон Каппилла
Сценарий: Дэвид Рид, Дэнни Билсон, Пол Де Мео
Премьера в мире: 26 февраля 2013-В ролях: Том Сайзмор, Чад Коллинз, Винни Джонс, Дмитрий Дьяченко, Нил МакДонаф, Юрген Прохнов, Мелиа Крейлинг, Ричард Саммел, Филип Рам, Аластер Маккензи-Описание:-Американские солдаты, попавшие в тыл врага во время Второй мировой войны, узнают, что у Гитлера есть модернизированная бомба. Несмотря на все трудности, они отправляются на поиски ученого, отвечающего за эту бомбу.- -Доп. информация:-Качество: BDRip 720p
Формат: MKV
Видео кодек: H.264
Аудио кодек: AC3, DTS
Видео: AVC (H.264), 1280x720 (16:9) at 23,976 fps, 5245 Кbps, 0.237 bpp
Аудио#1: AC3; 384 Kbps; CBR; 6 ch; 48 khz | P, MVO - R5 |
Аудио#2: DTS; 1536 Kbps; CBR; 6 ch; 48 khz; 16 bit | Английский |

MediaInfo

Общее
Уникальный идентификатор : 173028577071845913415200308523977964004 (0x822C177F020C43259F8F3C98E9EC79E4)
Полное имя : J:Отряд героев.2013.BDRip-720p.mkv
Формат : Matroska
Версия формата : Version 4 / Version 2
Размер файла : 5,01 Гбайт
Продолжительность : 1 ч. 40 м.
Общий поток : 7139 Кбит/сек
Название фильма : profile.php?mode=viewprofile&u=22488948
Дата кодирования : UTC 2013-04-26 11:00:31
Программа кодирования : mkvmerge v6.1.0 ('Old Devil') built on Mar 2 2013 14:32:37
Библиотека кодирования : libebml v1.3.0 + libmatroska v1.4.0
Видео
Идентификатор : 1
Формат : AVC
Формат/Информация : Advanced Video Codec
Профиль формата : High@L4.1
Параметр CABAC формата : Да
Параметр ReFrames формата : 9 кадров
Идентификатор кодека : V_MPEG4/ISO/AVC
Продолжительность : 1 ч. 40 м.
Битрейт : 5245 Кбит/сек
Ширина : 1280 пикселей
Высота : 720 пикселей
Соотношение сторон : 16:9
Режим частоты кадров : Постоянный
Частота кадров : 23,976 кадра/сек
Цветовое пространство : YUV
Субдискретизация насыщенности : 4:2:0
Битовая глубина : 8 бит
Тип развёртки : Прогрессивная
Бит/(Пиксели*Кадры) : 0.237
Размер потока : 3,58 Гбайт (71%)
Библиотека кодирования : x264 core 129 r2245 bc13772
Настройки программы : cabac=1 / ref=9 / deblock=1:-3:-3 / analyse=0x3:0x133 / me=umh / subme=10 / psy=1 / psy_rd=1.00:0.00 / mixed_ref=1 / me_range=16 / chroma_me=1 / trellis=2 / 8x8dct=1 / cqm=0 / deadzone=21,11 / fast_pskip=1 / chroma_qp_offset=-2 / threads=6 / lookahead_threads=1 / sliced_threads=0 / nr=0 / decimate=1 / interlaced=0 / bluray_compat=0 / constrained_intra=0 / bframes=10 / b_pyramid=0 / b_adapt=2 / b_bias=0 / direct=3 / weightb=1 / open_gop=0 / weightp=2 / keyint=240 / keyint_min=23 / scenecut=40 / intra_refresh=0 / rc_lookahead=40 / rc=2pass / mbtree=1 / bitrate=5245 / ratetol=1.0 / qcomp=0.60 / qpmin=0 / qpmax=69 / qpstep=4 / cplxblur=20.0 / qblur=0.5 / ip_ratio=1.40 / aq=1:0.80
Язык : English
Default : Да
Forced : Нет
Аудио #1
Идентификатор : 2
Формат : AC-3
Формат/Информация : Audio Coding 3
Расширение режима : CM (complete main)
Параметр Endianness формата : Big
Идентификатор кодека : A_AC3
Продолжительность : 1 ч. 40 м.
Вид битрейта : Постоянный
Битрейт : 384 Кбит/сек
Каналы : 6 каналов
Расположение каналов : Front: L C R, Side: L R, LFE
Частота : 48,0 КГц
Битовая глубина : 16 бит
Метод сжатия : С потерями
Размер потока : 276 Мбайт (5%)
Заголовок : P, MVO [R5]
Язык : Russian
Default : Да
Forced : Нет
Аудио #2
Идентификатор : 3
Формат : DTS
Формат/Информация : Digital Theater Systems
Режим : 16
Параметр Endianness формата : Big
Идентификатор кодека : A_DTS
Продолжительность : 1 ч. 40 м.
Вид битрейта : Постоянный
Битрейт : 1509 Кбит/сек
Каналы : 6 каналов
Расположение каналов : Front: L C R, Side: L R, LFE
Частота : 48,0 КГц
Битовая глубина : 16 бит
Метод сжатия : С потерями
Размер потока : 1,06 Гбайт (21%)
Язык : English
Default : Нет
Forced : Нет
Текст
Идентификатор : 4
Формат : UTF-8
Идентификатор кодека : S_TEXT/UTF8
Идентификатор кодека/Информация : UTF-8 Plain Text
Язык : English
Default : Нет
Forced : Нет
Меню
00:00:00.000 : en:00:00:00.000
00:05:59.401 : en:00:05:59.401
00:11:24.809 : en:00:11:24.809
00:15:57.290 : en:00:15:57.290
00:22:15.876 : en:00:22:15.876
00:28:56.860 : en:00:28:56.860
00:34:36.533 : en:00:34:36.533
00:42:13.740 : en:00:42:13.740
00:46:32.790 : en:00:46:32.790
00:53:27.371 : en:00:53:27.371
00:59:41.620 : en:00:59:41.620
01:05:14.911 : en:01:05:14.911
01:11:46.385 : en:01:11:46.385
01:19:12.748 : en:01:19:12.748
01:23:54.780 : en:01:23:54.780
01:28:59.125 : en:01:28:59.125
--

Скриншоты

[Profile]  [PM] 
Display posts:    
Reply to topic

Current time is: 28-May 07:01

All times are UTC + 2



You cannot post new topics in this forum
You cannot reply to topics in this forum
You cannot edit your posts in this forum
You cannot delete your posts in this forum
You cannot vote in polls in this forum
You cannot attach files in this forum
You cannot download files in this forum