Мерзлая земля / The Frozen Ground (Скотт Уокер) [2013 г., триллер, криминал, биография, WEB-DL 1080p, Дубляж, Чистый звук]

Reply to topic
 
Author
Message

LORN-V ®

Gender: Male

Longevity: 7 years 1 month

Posts: 904

Reputation: 5 [+] [-]

Location: Munchen

LORN-V · Post 04-Sep-2013 16:44

[Quote] 

Мерзлая земля / The Frozen Ground- -Основная информация:-Год выпуска: 2013
Страна: США
Жанр: триллер, криминал, биография,
Продолжительность: 01:45:33
Перевод: Дубляж, (Чистый звук) + Оригинал
Субтитры: English
Режиссер: Скотт Уокер
Продюссер: Фифти Сент, Ремингтон Чейз, Рэндолл Эмметт,
Сценарий: Скотт Уокер
Бюджет: $27 220 000
Премьера в мире: 11 июля 2013-В ролях: Николас Кейдж, Джон Кьюсак, Фифти Сент, Ванесса Энн Хадженс, Дин Норрис, Кэтрин ЛаНаса, Рада Митчелл,-Описание:-Все были уверены, что Роберт Хансен — приличный семьянин, владелец пекарни и славный охотник. Никто не подозревал, что на самом деле он — безжалостный маньяк, который похитил и убил более двадцати женщин. И только 17-летней Синди Полсон удалось сбежать от убийцы. Она наводит на след маньяка полицейского, который начинает опасное расследование. Ему никто не верит: Хансен — слишком приличный человек для такого обвинения… Но упорный коп знает свое дело и должен дойти до конца…- -Доп. информация:-Качество: WEB-DL 1080p
Формат: MKV
Видео кодек: H.264
Аудио кодек: AC3
Видео: 1912 x 792, 23.976 fps, (2,40:1), 4137 Kbps, (0.114 bit/pixel)
Аудио#1: AC3, 384 kb/s (6 ch), 48.0 KHz (Russian)
Аудио#2: AC3, 384 kb/s (6 ch), 48.0 KHz (English)

MediaInfo

Общее
Уникальный идентификатор : 182639912610301243993475192488967735410 (0x89672AECA8F46D3D8D9A451CCA9F0872)
Полное имя : D: The.Frozen.Ground.2013.1080p.WEB-DL.H264.mkv
Формат : Matroska
Версия формата : Version 4 / Version 2
Размер файла : 3,69 Гбайт
Продолжительность : 1 ч. 45 м.
Общий поток : 5005 Кбит/сек
Название фильма : Мерзлая земля / The.Frozen.Ground.2013.1080p.WEB-DL.H264-Abjex@DDLValley.eu
Дата кодирования : UTC 2013-09-04 12:20:21
Программа кодирования : mkvmerge v6.2.0 ('Promised Land') built on Apr 28 2013 12:22:01
Библиотека кодирования : libebml v1.3.0 + libmatroska v1.4.0
Видео
Идентификатор : 1
Формат : AVC
Формат/Информация : Advanced Video Codec
Профиль формата : High@L4.0
Параметр CABAC формата : Да
Параметр ReFrames формата : 5 кадров
Идентификатор кодека : V_MPEG4/ISO/AVC
Продолжительность : 1 ч. 45 м.
Битрейт : 4137 Кбит/сек
Ширина : 1912 пикселей
Высота : 792 пикселя
Соотношение сторон : 2,40:1
Режим частоты кадров : Постоянный
Частота кадров : 23,976 кадра/сек
Цветовое пространство : YUV
Субдискретизация насыщенности : 4:2:0
Битовая глубина : 8 бит
Тип развёртки : Прогрессивная
Бит/(Пиксели*Кадры) : 0.114
Размер потока : 3,05 Гбайт (83%)
Заголовок : Abjex@DDLValley.eu
Язык : English
Default : Да
Forced : Нет
Основные цвета : BT.709
Характеристики трансфера : BT.709
Коэффициенты матрицы : BT.709
Аудио #1
Идентификатор : 2
Формат : AC-3
Формат/Информация : Audio Coding 3
Расширение режима : CM (complete main)
Параметр Endianness формата : Big
Идентификатор кодека : A_AC3
Продолжительность : 1 ч. 45 м.
Вид битрейта : Постоянный
Битрейт : 384 Кбит/сек
Каналы : 6 каналов
Расположение каналов : Front: L C R, Side: L R, LFE
Частота : 48,0 КГц
Битовая глубина : 16 бит
Метод сжатия : С потерями
Размер потока : 290 Мбайт (8%)
Заголовок : Dub [Чистый звук]
Язык : Russian
Default : Нет
Forced : Да
Аудио #2
Идентификатор : 3
Формат : AC-3
Формат/Информация : Audio Coding 3
Расширение режима : CM (complete main)
Параметр Endianness формата : Big
Идентификатор кодека : A_AC3
Продолжительность : 1 ч. 45 м.
Вид битрейта : Постоянный
Битрейт : 384 Кбит/сек
Каналы : 6 каналов
Расположение каналов : Front: L C R, Side: L R, LFE
Частота : 48,0 КГц
Битовая глубина : 16 бит
Метод сжатия : С потерями
Размер потока : 290 Мбайт (8%)
Заголовок : Abjex@DDLValley.eu
Язык : English
Default : Да
Forced : Нет
Текст
Идентификатор : 4
Формат : UTF-8
Идентификатор кодека : S_TEXT/UTF8
Идентификатор кодека/Информация : UTF-8 Plain Text
Заголовок : Abjex@DDLValley.eu
Язык : English
Default : Да
Forced : Нет
Меню
00:00:00.000 : en:Chapter 1
00:01:35.000 : en:Chapter 2
00:08:55.000 : en:Chapter 3
00:18:13.000 : en:Chapter 4
00:29:13.000 : en:Chapter 5
00:38:06.000 : en:Chapter 6
00:48:01.000 : en:Chapter 7
00:55:51.000 : en:Chapter 8
01:04:05.000 : en:Chapter 9
01:11:59.000 : en:Chapter 10
01:20:27.000 : en:Chapter 11
01:28:43.000 : en:Chapter 12
01:39:30.000 : en:Chapter 13
--

Скриншоты:

[Profile]  [PM] 
Display posts:    
Reply to topic

Current time is: 25-May 20:27

All times are UTC + 2



You cannot post new topics in this forum
You cannot reply to topics in this forum
You cannot edit your posts in this forum
You cannot delete your posts in this forum
You cannot vote in polls in this forum
You cannot attach files in this forum
You cannot download files in this forum