Стартрек: Возмездие / Star Trek Into Darkness (Джей Джей Абрамс / J.J. Abrams) [2013, США, Фантастика, боевик, приключения, BDRip 1080p] Dub + Sub Rus + Original Eng

Reply to topic
 
Author
Message

Satyr ®

Gender: Unknown

Longevity: 11 years

Posts: 15402

Reputation: 55 [+] [-]

Satyr · Post 22-Sep-2013 23:40

[Quote] 

-Стартрек: Возмездие / Star Trek Into Darkness-Страна: США
Студия: Paramount Pictures
Жанр: Фантастика, боевик, приключения
Год выпуска: 2013
Продолжительность: 02:12:06-Перевод: Профессиональный (дублированный) Blu-ray CEE
Перевод 2: Профессиональный (дублированный) Пиратский
Перевод 3: Одноголосый закадровый | Andi отдельной раздачей
Cубтитры: русские (форсед и полные), английские (х3)
Оригинальная аудиодорожка: английский-Режиссер: Джей Джей Абрамс / J.J. Abrams
В ролях: Крис Пайн, Закари Куинто, Бенедикт Камбербэтч, Саймон Пегг, Карл Урбан, Зои Салдана, Элис Ив, Джон Чо, Антон Ельчин, Питер Уэллер-Описание: Вернувшись на Землю, команда корабля «Энтерпрайз» обнаруживает, что деятельность и принципы их организации подорваны изнутри. Флот скован необъяснимым ужасом и бездействует, пока мир все глубже погружается в бездну. Капитан Кирк берет на себя руководство операцией по поимке злодея, ответственного за этот хаос и способного уничтожить все человечество. В запутанной игре не на жизнь, а на смерть, любовь и дружба будут принесены в жертву ради единственного, что осталось у Кирка — его команды.-Сэмпл: http://yadi.sk/d/e1ootwfk983Wq-Тип релиза: BDRip 1080p
Контейнер: MKV
Видео: MPEG-4 AVC Video / 17.6 Mbps (67% of source) / 1918x800p / 23.976 fps / 2.35:1 / High Profile 4.1
Аудио 1: Russian / DTS Audio 5.1 / 48 kHz / 1509 kbps / 24-bit |Дубляж, Blu-ray CEE|
Аудио 2: Russian / AC3 / 48 kHz / 5.1 / 448 Kbps / 16 bit |Дубляж, Пиратский|
Аудио 3: English DTS Audio 5.1 / 48 kHz / 1509 kbps / 24-bit
Аудио 4: Russian DTS Audio 5.1 / 48 kHz / 1509 kbps / 16-bit | Andi отдельной раздачей
Формат субтитров: softsub (SRT)

Видеоряд от EbP

RELEASE NAME..: Star.Trek.Into.Darkness.2013.1080p.BluRay.DD5.1.x264-EbP
RELEASE DATE..: 08/30/2013
RELEASE SIZE..: 17.1 GB
RUNTIME.......: 2:12:06
VIDEO CODEC...: x264, CRF, L4.1
FRAMERATE.....: 23.976 fps
BITRATE.......: 17.6 Mbps
RESOLUTION....: 1918x800
AUDIO ........: English DD5.1 @ 640 kb/s
SUBTITLES.....: English .srt, English SDH .srt, English .sup, English SDH .sup
CHAPTER.......: Included
SOURCE........: Star Trek Into Darkness 2013 1080p Blu-ray AVC TrueHD 7.1-TTG
NOTES.........: Alot of blocking/banding in this one, cleaned up as best as possible.
Comparison Screenshots
Source | EbP | CHD | HDWinG




MI

General
Complete name                    : X:\  -= Фильмы =-\Стартрек. Возмездие (2013. Star Trek Into Darkness).mkv
Format                           : Matroska
File size                        : 19.7 GiB
Duration                         : 2h 12mn
Overall bit rate                 : 21.4 Mbps
Movie name                       : Release for RuTracke
Encoded date                     : UTC 2013-09-11 20:12:14
Writing application              : mkvmerge v4.9.1 ('Ich will') сборка от Jul 11 2011 23:53:15
Writing library                  : libebml v1.2.1 + libmatroska v1.1.1
Video
ID                               : 1
Format                           : AVC
Format/Info                      : Advanced Video Codec
Format profile                   : High@L4.1
Format settings, CABAC           : Yes
Format settings, ReFrames        : 5 frames
Format settings, GOP             : M=8, N=16
Muxing mode                      : Container profile=Unknown@4.1
Codec ID                         : V_MPEG4/ISO/AVC
Duration                         : 2h 12mn
Bit rate                         : 17.5 Mbps
Width                            : 1 918 pixels
Height                           : 800 pixels
Display aspect ratio             : 2.35:1
Frame rate                       : 23.976 fps
Color space                      : YUV
Chroma subsampling               : 4:2:0
Bit depth                        : 8 bits
Scan type                        : Progressive
Bits/(Pixel*Frame)               : 0.475
Stream size                      : 16.1 GiB (82%)
Title                            : Star.Trek.Into.Darkness.2013.1080p.BluRay.DD5.1.x264-EbP
Writing library                  : x264 core 135 r2345 f0c1c53
Encoding settings                : cabac=1 / ref=5 / deblock=1:-3:-3 / analyse=0x3:0x113 / me=tesa / subme=10 / psy=1 / psy_rd=1.05:0.00 / mixed_ref=1 / me_range=16 / chroma_me=1 / trellis=2 / 8x8dct=1 / cqm=0 / deadzone=21,11 / fast_pskip=0 / chroma_qp_offset=-2 / threads=12 / lookahead_threads=2 / sliced_threads=0 / nr=0 / decimate=0 / interlaced=0 / bluray_compat=0 / constrained_intra=0 / bframes=7 / b_pyramid=2 / b_adapt=2 / b_bias=0 / direct=3 / weightb=1 / open_gop=0 / weightp=2 / keyint=250 / keyint_min=23 / scenecut=40 / intra_refresh=0 / rc=crf / mbtree=0 / crf=17.0 / qcomp=0.65 / qpmin=0 / qpmax=69 / qpstep=4 / ip_ratio=1.30 / pb_ratio=1.30 / aq=1:0.80 / zones=180660,190031,crf=30
Language                         : English
Audio #1
ID                               : 2
Format                           : DTS
Format/Info                      : Digital Theater Systems
Codec ID                         : A_DTS
Duration                         : 2h 12mn
Bit rate mode                    : Constant
Bit rate                         : 1 510 Kbps
Channel(s)                       : 6 channels
Channel positions                : Front: L C R, Side: L R, LFE
Sampling rate                    : 48.0 KHz
Bit depth                        : 24 bits
Stream size                      : 1.39 GiB (7%)
Title                            : Дубляж [Blu-ray]
Language                         : Russian
Audio #2
ID                               : 3
Format                           : AC-3
Format/Info                      : Audio Coding 3
Mode extension                   : CM (complete main)
Codec ID                         : A_AC3
Duration                         : 2h 12mn
Bit rate mode                    : Constant
Bit rate                         : 448 Kbps
Channel(s)                       : 6 channels
Channel positions                : Front: L C R, Side: L R, LFE
Sampling rate                    : 48.0 KHz
Bit depth                        : 16 bits
Stream size                      : 423 MiB (2%)
Title                            : Дубляж [Пиратский]
Language                         : Russian
Audio #3
ID                               : 4
Format                           : DTS
Format/Info                      : Digital Theater Systems
Codec ID                         : A_DTS
Duration                         : 2h 12mn
Bit rate mode                    : Constant
Bit rate                         : 1 510 Kbps
Channel(s)                       : 6 channels
Channel positions                : Front: L C R, Side: L R, LFE
Sampling rate                    : 48.0 KHz
Bit depth                        : 24 bits
Stream size                      : 1.39 GiB (7%)
Language                         : English
Text #1
ID                               : 5
Format                           : UTF-8
Codec ID                         : S_TEXT/UTF8
Codec ID/Info                    : UTF-8 Plain Text
Title                            : Forced
Language                         : Russian
Text #2
ID                               : 6
Format                           : UTF-8
Codec ID                         : S_TEXT/UTF8
Codec ID/Info                    : UTF-8 Plain Text
Title                            : Full
Language                         : Russian
Text #3
ID                               : 7
Format                           : UTF-8
Codec ID                         : S_TEXT/UTF8
Codec ID/Info                    : UTF-8 Plain Text
Language                         : English
Text #4
ID                               : 8
Format                           : UTF-8
Codec ID                         : S_TEXT/UTF8
Codec ID/Info                    : UTF-8 Plain Text
Title                            : SDH
Language                         : English
Text #5
ID                               : 9
Format                           : UTF-8
Codec ID                         : S_TEXT/UTF8
Codec ID/Info                    : UTF-8 Plain Text
Title                            : SDH-COLORED
Language                         : English
Text #6
ID                               : 10
Format                           : UTF-8
Codec ID                         : S_TEXT/UTF8
Codec ID/Info                    : UTF-8 Plain Text
Language                         : Ukrainian
Menu
00:00:00.000                     : en:00:00:00.000
00:10:20.370                     : en:00:10:20.370
00:19:21.494                     : en:00:19:21.494
00:30:03.969                     : en:00:30:03.969
00:40:09.115                     : en:00:40:09.115
00:46:05.262                     : en:00:46:05.262
00:56:38.228                     : en:00:56:38.228
01:06:35.783                     : en:01:06:35.783
01:12:55.663                     : en:01:12:55.663
01:22:45.752                     : en:01:22:45.752
01:30:54.741                     : en:01:30:54.741
01:38:36.369                     : en:01:38:36.369
01:47:09.548                     : en:01:47:09.548
01:54:17.142                     : en:01:54:17.142
01:59:20.653                     : en:01:59:20.653
02:03:18.308                     : en:02:03:18.308

Скриншоты


[Profile]  [PM] 
Display posts:    
Reply to topic

Current time is: 28-May 05:26

All times are UTC + 2



You cannot post new topics in this forum
You cannot reply to topics in this forum
You cannot edit your posts in this forum
You cannot delete your posts in this forum
You cannot vote in polls in this forum
You cannot attach files in this forum
You cannot download files in this forum