Великий Гэтсби / The Great Gatsby (Баз Лурман / Baz Luhrmann) [2013, США, мелодрама, BDRemux 1080p] Dub + AVO (Юрий Сербин) + Sub Rus + Original Eng

Reply to topic
 
Author
Message

Oton ®

Gender: Unknown

Longevity: 8 years 8 months

Posts: 70

Reputation: 5 [+] [-]

Oton · Post 16-Nov-2013 21:48

[Quote] 

-Великий Гэтсби / The Great Gatsby-Страна: США
Жанр: мелодрама
Год выпуска: 2013
Продолжительность: 02:22:05-Перевод: Профессиональный (дублированный)
Перевод 2: Авторский (одноголосый закадровый) Юрий Сербин
Cубтитры: русские, английские
Оригинальная аудиодорожка: английский-Режиссер: Баз Лурман / Baz Luhrmann
В ролях: Леонардо ДиКаприо, Тоби Магуайр, Кэри Маллиган, Джоэл Эдгертон, Айла Фишер, Джейсон Кларк, Амитабх Баччан, Стив Бисли, Ричард Картер, Эделейд Клеменс-Описание: Весной 1922 года, в эпоху разлагающейся морали, блистательного джаза и «королей контрабандного алкоголя», Ник Каррауэй приезжает из Среднего Запада в Нью-Йорк. Преследуя собственную американскую мечту, он селится по соседству с таинственным, известным своими вечеринками миллионером Джеем Гэтсби, а на противоположном берегу бухты проживают его кузина Дэйзи и её муж, повеса и аристократ, Том Бьюкенен. Так Ник оказывается вовлечённым в захватывающий мир богатых - их иллюзий, любви и обманов. Он становится свидетелем происходящего в этом мире и пишет историю невозможной любви, вечных мечтаний и человеческой трагедии, которые являются отражением современных времен и нравов.-Сэмпл: http://yadi.sk/d/CujAC6bTCWvz5-Тип релиза: BDRemux 1080p
Контейнер: MKV
Видео: MPEG-4 AVC Video 20961 kbps 1080p / 23,976 fps / 16:9 / High Profile 4.1
Аудио: Dolby Digital Audio Russian 5.1 / 48 kHz / 448 kbps | Дубляж
Аудио 2: DTS-HD Master Audio Russian 5.1 / 48 kHz / 2178 kbps / 16-bit (DTS Core: 5.1 / 48 kHz / 1509 kbps / 16-bit) | Юрий Сербин
Аудио 3: Dolby Digital Audio Ukrainian 5.1 / 48 kHz / 448 kbps | Дубляж
Аудио 4: DTS-HD Master Audio English 5.1 / 48 kHz / 2183 kbps / 16-bit (DTS Core: 5.1 / 48 kHz / 1509 kbps / 16-bit)
Формат субтитров: softsub (SRT)

MI

General
Complete name                    : X:\  -= Фильмы =-\Великий Гэтсби (2013. The Great Gatsby).mkv
Format                           : Matroska
File size                        : 26.0 GiB
Duration                         : 2h 22mn
Overall bit rate                 : 26.2 Mbps
Movie name                       : The Great Gatsby (2013) - Release from HDCLUB
Encoded date                     : UTC 2013-11-11 19:19:19
Writing application              : mkvmerge v4.9.1 ('Ich will') сборка от Jul 11 2011 23:53:15
Writing library                  : libebml v1.2.1 + libmatroska v1.1.1
Video
ID                               : 1
Format                           : AVC
Format/Info                      : Advanced Video Codec
Format profile                   : High@L4.1
Format settings, CABAC           : Yes
Format settings, ReFrames        : 2 frames
Muxing mode                      : Container profile=Unknown@4.1
Codec ID                         : V_MPEG4/ISO/AVC
Duration                         : 2h 22mn
Bit rate mode                    : Variable
Width                            : 1 920 pixels
Height                           : 1 080 pixels
Display aspect ratio             : 16:9
Frame rate                       : 23.976 fps
Color space                      : YUV
Chroma subsampling               : 4:2:0
Bit depth                        : 8 bits
Scan type                        : Progressive
Title                            : THE_GREAT_GATSBY_2013_REMUX_HDCLUB
Language                         : English
Audio #1
ID                               : 2
Format                           : AC-3
Format/Info                      : Audio Coding 3
Mode extension                   : CM (complete main)
Codec ID                         : A_AC3
Duration                         : 2h 22mn
Bit rate mode                    : Constant
Bit rate                         : 448 Kbps
Channel(s)                       : 6 channels
Channel positions                : Front: L C R, Side: L R, LFE
Sampling rate                    : 48.0 KHz
Bit depth                        : 16 bits
Stream size                      : 455 MiB (2%)
Title                            : DUB [Blu-ray CEE]
Language                         : Russian
Audio #2
ID                               : 3
Format                           : DTS
Format/Info                      : Digital Theater Systems
Format profile                   : MA
Codec ID                         : A_DTS
Duration                         : 2h 22mn
Bit rate mode                    : Variable
Channel(s)                       : 6 channels
Channel positions                : Front: L C R, Side: L R, LFE
Sampling rate                    : 48.0 KHz
Bit depth                        : 16 bits
Title                            : Юрий Сербин
Language                         : Russian
Audio #3
ID                               : 4
Format                           : AC-3
Format/Info                      : Audio Coding 3
Mode extension                   : CM (complete main)
Codec ID                         : A_AC3
Duration                         : 2h 22mn
Bit rate mode                    : Constant
Bit rate                         : 448 Kbps
Channel(s)                       : 6 channels
Channel positions                : Front: L C R, Side: L R, LFE
Sampling rate                    : 48.0 KHz
Bit depth                        : 16 bits
Stream size                      : 455 MiB (2%)
Title                            : DUB [Blu-ray CEE]
Language                         : Ukrainian
Audio #4
ID                               : 5
Format                           : DTS
Format/Info                      : Digital Theater Systems
Format profile                   : MA
Codec ID                         : A_DTS
Duration                         : 2h 22mn
Bit rate mode                    : Variable
Channel(s)                       : 6 channels
Channel positions                : Front: L C R, Side: L R, LFE
Sampling rate                    : 48.0 KHz
Bit depth                        : 16 bits
Language                         : English
Text #1
ID                               : 6
Format                           : UTF-8
Codec ID                         : S_TEXT/UTF8
Codec ID/Info                    : UTF-8 Plain Text
Title                            : Forced
Language                         : Russian
Text #2
ID                               : 7
Format                           : UTF-8
Codec ID                         : S_TEXT/UTF8
Codec ID/Info                    : UTF-8 Plain Text
Language                         : Russian
Text #3
ID                               : 8
Format                           : UTF-8
Codec ID                         : S_TEXT/UTF8
Codec ID/Info                    : UTF-8 Plain Text
Title                            : voronine
Language                         : Russian
Text #4
ID                               : 9
Format                           : UTF-8
Codec ID                         : S_TEXT/UTF8
Codec ID/Info                    : UTF-8 Plain Text
Title                            : Forced
Language                         : Ukrainian
Text #5
ID                               : 10
Format                           : UTF-8
Codec ID                         : S_TEXT/UTF8
Codec ID/Info                    : UTF-8 Plain Text
Language                         : Ukrainian
Text #6
ID                               : 11
Format                           : UTF-8
Codec ID                         : S_TEXT/UTF8
Codec ID/Info                    : UTF-8 Plain Text
Language                         : English
Text #7
ID                               : 12
Format                           : UTF-8
Codec ID                         : S_TEXT/UTF8
Codec ID/Info                    : UTF-8 Plain Text
Title                            : SDH
Language                         : English
Text #8
ID                               : 13
Format                           : UTF-8
Codec ID                         : S_TEXT/UTF8
Codec ID/Info                    : UTF-8 Plain Text
Title                            : SDH-COLORED
Language                         : English
Menu
00:00:00.000                     : en:The East Egg
00:11:04.080                     : en:Myrtle Wilson
00:22:55.832                     : en:Invitation
00:34:26.898                     : en:Lunch With Gatsby
00:44:48.727                     : en:Reacquainted
00:55:36.332                     : en:Rich and Poor
01:06:20.643                     : en:A Party for Daisy
01:18:27.786                     : en:Lovers
01:31:13.926                     : en:Going Into Town
01:44:11.954                     : en:Confronting Tom
01:56:35.154                     : en:Trouble on the Road
02:05:46.121                     : en:The Driver
02:09:40.981                     : en:Revenge

Скриншоты


[Profile]  [PM] 
Display posts:    
Reply to topic

Current time is: 28-May 06:29

All times are UTC + 2



You cannot post new topics in this forum
You cannot reply to topics in this forum
You cannot edit your posts in this forum
You cannot delete your posts in this forum
You cannot vote in polls in this forum
You cannot attach files in this forum
You cannot download files in this forum