Великий Гэтсби / The Great Gatsby (Баз Лурман / Baz Luhrmann) [2013, США, мелодрама, BDRip 1080p] Dub + AVO (Юрий Сербин) + Sub Rus, Eng + Original Eng

Reply to topic
 
Author
Message

Oton ®

Gender: Unknown

Longevity: 8 years 8 months

Posts: 70

Reputation: 5 [+] [-]

Oton · Post 16-Nov-2013 22:04

[Quote] 

-Великий Гэтсби / The Great Gatsby-Страна: США
Жанр: мелодрама
Год выпуска: 2013
Продолжительность: 02:22:05-Перевод: Профессиональный (дублированный)
Перевод 2: Авторский (одноголосый закадровый) Юрий Сербин
Cубтитры: русские, английские
Оригинальная аудиодорожка: английский-Режиссер: Баз Лурман / Baz Luhrmann
В ролях: Леонардо ДиКаприо, Тоби Магуайр, Кэри Маллиган, Джоэл Эдгертон, Айла Фишер, Джейсон Кларк, Амитабх Баччан, Стив Бисли, Ричард Картер, Эделейд Клеменс-Описание: Весной 1922 года, в эпоху разлагающейся морали, блистательного джаза и «королей контрабандного алкоголя», Ник Каррауэй приезжает из Среднего Запада в Нью-Йорк. Преследуя собственную американскую мечту, он селится по соседству с таинственным, известным своими вечеринками миллионером Джеем Гэтсби, а на противоположном берегу бухты проживают его кузина Дэйзи и её муж, повеса и аристократ, Том Бьюкенен. Так Ник оказывается вовлечённым в захватывающий мир богатых - их иллюзий, любви и обманов. Он становится свидетелем происходящего в этом мире и пишет историю невозможной любви, вечных мечтаний и человеческой трагедии, которые являются отражением современных времен и нравов.-Сэмпл: http://yadi.sk/d/ox57O8nh8vPdB-Тип релиза: BDRip 1080p
Контейнер: MKV
Видео: MPEG-4 AVC Video 13700 kbps 1920 x 800 p / 23.976 fps/ High Profile 4.1
Аудио: Dolby Digital Audio Russian 5.1 / 48 kHz / 448 kbps | Дубляж
Аудио 2: Dolby Digital Audio Ukrainian 5.1 / 48 kHz / 448 kbps | Дубляж
Аудио 3: DTS Audio Russian 5.1 / 48 kHz / 1509 kbps / 16-bit | Юрий Сербин
Аудио 4: DTS Audio English 5.1 / 48 kHz / 1509 kbps / 16-bit
Формат субтитров: softsub (SRT)

Видеоряд от NTb

The.Great.Gatsby.2013.1080p.BluRay.DTS.x264-NTb
****************************************************
MOViE iNFO
NAME.................: The Great Gatsby (2013)
GENRE................: Drama - Romance
RELEASE iNFO
SiZE.................: 15.3 GB
RUNTiME..............: 2h:22m:05s
CHAPTERS.............: Included
ViDEO
ENCODER LiBRARY......: x264 core 136 r2348+704+51 d1baef6 tMod
BiTRATE..............: Variable - 13,984 Kbps avg.
MODE.................: CRF 18
RESOLUTiON...........: 1920 x 800
AUDiO
CODEC................: DTS
BiTRATE..............: 1,509 Kbps
CHANNELS.............: 5.1
LANGUAGE.............: English
SUBTiTLES
FORMAT...............: SRT
LANGUAGE.............: English, English - SDH
SOURCE...............: The Great Gatsby 2013 Blu-ray AVC DTS-HD MA 5.1-HDWinG
GREETiNGS............: The whole NTb and HiSD crew
x264 Log:
x264 [info]: frame I:2330 Avg QP:16.32 size:230451
x264 [info]: frame P:50583 Avg QP:17.27 size:112825
x264 [info]: frame B:151499 Avg QP:17.96 size: 57157
x264 [info]: consecutive B-frames: 2.5% 3.7% 5.6% 59.5% 8.5% 11.9% 3.5% 4.5% 0.4%
x264 [info]: encoded 204412 frames, 2.790 fps, 13984.26 kb/s, 14213 MB

MI

General
Complete name                    : X:\  -= Фильмы =-\Великий Гэтсби (2013. The Great Gatsby).mkv
Format                           : Matroska
File size                        : 17.8 GiB
Duration                         : 2h 22mn
Overall bit rate                 : 17.9 Mbps
Movie name                       : Release for RuTracker
Encoded date                     : UTC 2013-09-08 18:15:52
Writing application              : mkvmerge v4.9.1 ('Ich will') сборка от Jul 11 2011 23:53:15
Writing library                  : libebml v1.2.1 + libmatroska v1.1.1
Video
ID                               : 1
Format                           : AVC
Format/Info                      : Advanced Video Codec
Format profile                   : High@L4.1
Format settings, CABAC           : Yes
Format settings, ReFrames        : 5 frames
Muxing mode                      : Container profile=Unknown@4.1
Codec ID                         : V_MPEG4/ISO/AVC
Duration                         : 2h 22mn
Bit rate                         : 13.6 Mbps
Width                            : 1 920 pixels
Height                           : 800 pixels
Display aspect ratio             : 2.40:1
Frame rate                       : 23.976 fps
Color space                      : YUV
Chroma subsampling               : 4:2:0
Bit depth                        : 8 bits
Scan type                        : Progressive
Bits/(Pixel*Frame)               : 0.370
Stream size                      : 13.5 GiB (76%)
Title                            : The.Great.Gatsby.2013.1080p.BluRay.DTS.x264-NTb
Writing library                  : x264 core 136 r2348+704+51 d1baef6 tMod [8-bit@4:2:0 X86]
Encoding settings                : cabac=1 / ref=5 / deblock=1:-3:-3 / analyse=0x3:0x113 / me=umh / subme=10 / psy=1 / fade_compensate=0.00 / psy_rd=1.08:0.05 / mixed_ref=1 / me_range=32 / chroma_me=1 / trellis=2 / 8x8dct=1 / cqm=0 / deadzone=21,11 / fast_pskip=0 / chroma_qp_offset=-3 / threads=6 / lookahead_threads=1 / sliced_threads=0 / nr=0 / decimate=0 / interlaced=0 / bluray_compat=0 / constrained_intra=0 / fgo=0 / bframes=8 / b_pyramid=2 / b_adapt=2 / b_bias=0 / direct=3 / weightb=1 / open_gop=0 / weightp=2 / keyint=250 / keyint_min=23 / scenecut=40 / intra_refresh=0 / rc_lookahead=60 / rc=crf / mbtree=0 / crf=18.0000 / qcomp=0.75 / qpmin=0:0:0 / qpmax=69:69:69 / qpstep=4 / vbv_maxrate=50000 / vbv_bufsize=62500 / crf_max=0.0 / nal_hrd=none / ip_ratio=1.20 / pb_ratio=1.10 / aq=3:0.75 / aq-sensitivity=10.00 / aq-factor=1.00:1.00:1.00 / aq2=0 / aq3=0
Language                         : English
Audio #1
ID                               : 2
Format                           : AC-3
Format/Info                      : Audio Coding 3
Mode extension                   : CM (complete main)
Codec ID                         : A_AC3
Duration                         : 2h 22mn
Bit rate mode                    : Constant
Bit rate                         : 448 Kbps
Channel(s)                       : 6 channels
Channel positions                : Front: L C R, Side: L R, LFE
Sampling rate                    : 48.0 KHz
Bit depth                        : 16 bits
Stream size                      : 455 MiB (3%)
Title                            : DUB, Blu-ray CEE
Language                         : Russian
Audio #2
ID                               : 3
Format                           : AC-3
Format/Info                      : Audio Coding 3
Mode extension                   : CM (complete main)
Codec ID                         : A_AC3
Duration                         : 2h 22mn
Bit rate mode                    : Constant
Bit rate                         : 448 Kbps
Channel(s)                       : 6 channels
Channel positions                : Front: L C R, Side: L R, LFE
Sampling rate                    : 48.0 KHz
Bit depth                        : 16 bits
Stream size                      : 455 MiB (3%)
Title                            : DUB, Blu-ray CEE
Language                         : Ukrainian
Audio #3
ID                               : 4
Format                           : DTS
Format/Info                      : Digital Theater Systems
Codec ID                         : A_DTS
Duration                         : 2h 22mn
Bit rate mode                    : Constant
Bit rate                         : 1 510 Kbps
Channel(s)                       : 6 channels
Channel positions                : Front: L C R, Side: L R, LFE
Sampling rate                    : 48.0 KHz
Bit depth                        : 16 bits
Stream size                      : 1.50 GiB (8%)
Title                            : Юрий Сербин
Language                         : Russian
Audio #4
ID                               : 5
Format                           : DTS
Format/Info                      : Digital Theater Systems
Codec ID                         : A_DTS
Duration                         : 2h 22mn
Bit rate mode                    : Constant
Bit rate                         : 1 510 Kbps
Channel(s)                       : 6 channels
Channel positions                : Front: L C R, Side: L R, LFE
Sampling rate                    : 48.0 KHz
Bit depth                        : 16 bits
Stream size                      : 1.50 GiB (8%)
Language                         : English
Text #1
ID                               : 6
Format                           : UTF-8
Codec ID                         : S_TEXT/UTF8
Codec ID/Info                    : UTF-8 Plain Text
Title                            : Forced
Language                         : Russian
Text #2
ID                               : 7
Format                           : UTF-8
Codec ID                         : S_TEXT/UTF8
Codec ID/Info                    : UTF-8 Plain Text
Language                         : Russian
Text #3
ID                               : 8
Format                           : UTF-8
Codec ID                         : S_TEXT/UTF8
Codec ID/Info                    : UTF-8 Plain Text
Title                            : Forced
Language                         : Ukrainian
Text #4
ID                               : 9
Format                           : UTF-8
Codec ID                         : S_TEXT/UTF8
Codec ID/Info                    : UTF-8 Plain Text
Language                         : Ukrainian
Text #5
ID                               : 10
Format                           : UTF-8
Codec ID                         : S_TEXT/UTF8
Codec ID/Info                    : UTF-8 Plain Text
Language                         : English
Text #6
ID                               : 11
Format                           : UTF-8
Codec ID                         : S_TEXT/UTF8
Codec ID/Info                    : UTF-8 Plain Text
Title                            : SDH
Language                         : English
Text #7
ID                               : 12
Format                           : UTF-8
Codec ID                         : S_TEXT/UTF8
Codec ID/Info                    : UTF-8 Plain Text
Title                            : SDH-COLORED
Language                         : English
Menu
00:00:00.000                     : en:00:00:00.000
00:11:04.080                     : en:00:11:04.080
00:22:55.833                     : en:00:22:55.833
00:34:26.898                     : en:00:34:26.898
00:44:48.728                     : en:00:44:48.728
00:55:36.333                     : en:00:55:36.333
01:06:20.643                     : en:01:06:20.643
01:18:27.786                     : en:01:18:27.786
01:31:13.927                     : en:01:31:13.927
01:44:11.954                     : en:01:44:11.954
01:56:35.155                     : en:01:56:35.155
02:05:46.122                     : en:02:05:46.122
02:09:40.982                     : en:02:09:40.982
[Profile]  [PM] 
Display posts:    
Reply to topic

Current time is: 25-May 20:53

All times are UTC + 2



You cannot post new topics in this forum
You cannot reply to topics in this forum
You cannot edit your posts in this forum
You cannot delete your posts in this forum
You cannot vote in polls in this forum
You cannot attach files in this forum
You cannot download files in this forum