Росомаха: Бессмертный / The Wolverine (Джеймс Мэнголд / James Mangold) [2013, США, фантастика, фэнтези, боевик, приключения, BDRip 720p] [Расширенная версия / Extended Cut] Dub + Original Eng + Sub Rus, Eng, Ukr

Reply to topic
 
Author
Message

Satyr ®

Gender: Unknown

Longevity: 11 years

Posts: 15402

Reputation: 55 [+] [-]

Satyr · Post 24-Nov-2013 18:04

[Quote] 

Росомаха: Бессмертный [Расширенная версия] / The Wolverine [Extended Cut]
«When he's most vulnerable, he's most dangerous»
Страна: США
Студия: 20th Century Fox Film Corporation
Жанр: фантастика, фэнтези, боевик, приключения
Год выпуска: 2013
Продолжительность: 02:18:05
Перевод: Профессиональный (полное дублирование) BD EUR
Режиссер: Джеймс Мэнголд / James Mangold
В ролях: Хью Джекман, Тао Окамото, Рила Фукусима, Светлана Ходченкова, Уилл Юн Ли, Харукико Яманоути, Хироюки Санада, Брайан Ти, Кен Ямамура, Фамке Янссен
Описание: Новая глава приключений Росомахи развернётся в Японии, где Логану предстоит выяснить, что острее - когти Росомахи или меч Серебряного Самурая.
Рип от: CtrlHD
Сэмпл: rusfolder→, sendfile→
Тип релиза: BDRip 720p
Контейнер: MKV
Видео: 1280 x 532 (2.406), x264, CRF15, L4.1, 23.976fps, 7730Kbps
Аудио 1: 48 kHz, DTS 5.1 - 768.00 kbps |Дубляж, BD EUR|
Аудио 2: 48 kHz, DTS 5.1 - 1510 kbps |Оригинал|
Cубтитры: Русские (полные, форсированные), Украинские, Английские (полные, форсированные, SDH, SDH Color).

MediaInfo

Полное имя : The Wolverine 2013 Extended 720p BluRay DTS-ES x264-CtrlHD.Rus.Eng.mkv
Формат : Matroska
Версия формата : Version 4 / Version 2
Размер файла : 9,65 Гбайт
Продолжительность : 2 ч. 18 м.
Общий поток : 10,0 Мбит/сек
Название фильма : by CtrlHD
Дата кодирования : UTC 2013-11-23 09:36:59
Программа кодирования : mkvmerge v6.5.0 ('Isn't she lovely') built on Oct 20 2013 12:50:05
Библиотека кодирования : libebml v1.3.0 + libmatroska v1.4.1
Видео
Идентификатор : 1
Формат : AVC
Формат/Информация : Advanced Video Codec
Профиль формата : High@L4.1
Параметр CABAC формата : Да
Параметр ReFrames формата : 10 кадров
Идентификатор кодека : V_MPEG4/ISO/AVC
Продолжительность : 2 ч. 18 м.
Битрейт : 7532 Кбит/сек
Ширина : 1280 пикселей
Высота : 532 пикселя
Соотношение сторон : 2,40:1
Режим частоты кадров : Постоянный
Частота кадров : 23,976 кадра/сек
Цветовое пространство : YUV
Субдискретизация насыщенности : 4:2:0
Битовая глубина : 8 бит
Тип развёртки : Прогрессивная
Бит/(Пиксели*Кадры) : 0.461
Размер потока : 7,26 Гбайт (75%)
Заголовок : The Wolverine (2013) by Djex
Библиотека кодирования : x264 core 138 r2358kMod 9e941d1
Настройки программы : cabac=1 / ref=10 / deblock=1:-3:-3 / analyse=0x3:0x113 / me=esa / subme=10 / psy=1 / fade_compensate=0.00 / psy_rd=1.05:0.00 / mixed_ref=1 / me_range=32 / chroma_me=1 / trellis=2 / 8x8dct=1 / cqm=0 / deadzone=21,11 / fast_pskip=0 / chroma_qp_offset=-2 / threads=6 / lookahead_threads=1 / sliced_threads=0 / nr=0 / decimate=0 / interlaced=0 / bluray_compat=0 / constrained_intra=0 / bframes=8 / b_pyramid=2 / b_adapt=2 / b_bias=0 / direct=3 / weightb=1 / open_gop=0 / weightp=2 / keyint=250 / keyint_min=23 / scenecut=40 / intra_refresh=0 / rc_lookahead=80 / rc=crf / mbtree=0 / crf=15.0000 / qcomp=0.70 / qpmin=0 / qpmax=30 / qpstep=4 / vbv_maxrate=20000 / vbv_bufsize=15000 / crf_max=0.0 / nal_hrd=none / ip_ratio=1.20 / pb_ratio=1.10 / aq=1:0.90
Язык : English
Default : Нет
Forced : Нет
Аудио #1
Идентификатор : 2
Формат : DTS
Формат/Информация : Digital Theater Systems
Режим : 16
Параметр Endianness формата : Big
Идентификатор кодека : A_DTS
Продолжительность : 2 ч. 18 м.
Вид битрейта : Постоянный
Битрейт : 768 Кбит/сек
Каналы : 6 каналов
Расположение каналов : Front: L C R, Side: L R, LFE
Частота : 48,0 КГц
Битовая глубина : 24 бит
Метод сжатия : С потерями
Размер потока : 759 Мбайт (8%)
Заголовок : DTS 5.1 - 768 kbps |Дубляж, BD|
Язык : Russian
Default : Да
Forced : Нет
Аудио #2
Идентификатор : 3
Формат : DTS
Формат/Информация : Digital Theater Systems
Профиль формата : ES
Режим : 16
Параметр Endianness формата : Big
Идентификатор кодека : A_DTS
Продолжительность : 2 ч. 18 м.
Вид битрейта : Постоянный
Битрейт : 1509 Кбит/сек
Каналы : 6 каналов
Расположение каналов : Front: L C R, Side: L R, LFE
Частота : 48,0 КГц
Битовая глубина : 24 бит
Метод сжатия : С потерями
Размер потока : 1,46 Гбайт (15%)
Заголовок : DTS-ES 5.1 - 1510 Kbps |Оригинал|
Язык : English
Default : Нет
Forced : Нет
Текст #1
Идентификатор : 4
Формат : UTF-8
Идентификатор кодека : S_TEXT/UTF8
Идентификатор кодека/Информация : UTF-8 Plain Text
Заголовок : Forced
Язык : Russian
Default : Да
Forced : Нет
Текст #2
Идентификатор : 5
Формат : UTF-8
Идентификатор кодека : S_TEXT/UTF8
Идентификатор кодека/Информация : UTF-8 Plain Text
Язык : Russian
Default : Нет
Forced : Нет
Текст #3
Идентификатор : 6
Формат : UTF-8
Идентификатор кодека : S_TEXT/UTF8
Идентификатор кодека/Информация : UTF-8 Plain Text
Язык : Ukrainian
Default : Нет
Forced : Нет
Текст #4
Идентификатор : 7
Формат : UTF-8
Идентификатор кодека : S_TEXT/UTF8
Идентификатор кодека/Информация : UTF-8 Plain Text
Заголовок : Forced
Язык : English
Default : Нет
Forced : Нет
Текст #5
Идентификатор : 8
Формат : UTF-8
Идентификатор кодека : S_TEXT/UTF8
Идентификатор кодека/Информация : UTF-8 Plain Text
Язык : English
Default : Нет
Forced : Нет
Текст #6
Идентификатор : 9
Формат : UTF-8
Идентификатор кодека : S_TEXT/UTF8
Идентификатор кодека/Информация : UTF-8 Plain Text
Заголовок : SDH
Язык : English
Default : Нет
Forced : Нет
Текст #7
Идентификатор : 10
Формат : UTF-8
Идентификатор кодека : S_TEXT/UTF8
Идентификатор кодека/Информация : UTF-8 Plain Text
Заголовок : SDH Color
Язык : English
Default : Нет
Forced : Нет
Меню
00:00:00.000 : en:Chapter 1
00:05:03.720 : en:Chapter 2
00:07:39.793 : en:Chapter 3
00:08:40.562 : en:Chapter 4
00:10:24.374 : en:Chapter 5
00:13:55.668 : en:Chapter 6
00:16:48.174 : en:Chapter 7
00:20:32.648 : en:Chapter 8
00:23:36.915 : en:Chapter 9
00:29:13.585 : en:Chapter 10
00:33:42.771 : en:Chapter 11
00:35:14.779 : en:Chapter 12
00:38:36.523 : en:Chapter 13
00:43:04.957 : en:Chapter 14
00:47:55.081 : en:Chapter 15
00:49:31.844 : en:Chapter 16
00:52:23.098 : en:Chapter 17
00:59:32.319 : en:Chapter 18
01:01:31.354 : en:Chapter 19
01:07:00.516 : en:Chapter 20
01:13:10.261 : en:Chapter 21
01:18:52.227 : en:Chapter 22
01:23:40.474 : en:Chapter 23
01:26:47.160 : en:Chapter 24
01:29:50.927 : en:Chapter 25
01:35:19.380 : en:Chapter 26
01:38:28.194 : en:Chapter 27
01:41:43.639 : en:Chapter 28
01:48:33.006 : en:Chapter 29
01:52:05.969 : en:Chapter 30
01:54:56.264 : en:Chapter 31
01:58:03.493 : en:Chapter 32
02:03:02.000 : en:Chapter 33
02:04:57.407 : en:Chapter 34
02:07:46.701 : en:Chapter 35
02:09:17.375 : en:Chapter 36

Скриншоты


Source vs CtrlHD vs SPARKS




[Profile]  [PM] 
Display posts:    
Reply to topic

Current time is: 03-Jun 14:01

All times are UTC + 2



You cannot post new topics in this forum
You cannot reply to topics in this forum
You cannot edit your posts in this forum
You cannot delete your posts in this forum
You cannot vote in polls in this forum
You cannot attach files in this forum
You cannot download files in this forum