Страсти Дон Жуана / Don Jon (Джозеф Гордон-Левитт / Joseph Gordon-Levitt) [2013, США, Комедия, мелодрама, Blu-ray disc 1080i] Dub

Reply to topic
 
Author
Message

Satyr ®

Gender: Unknown

Longevity: 11 years

Posts: 15402

Reputation: 55 [+] [-]

Satyr · Post 15-Dec-2013 23:00

[Quote] 

Страсти Дон Жуана
Don Jon
Страна: США
Студия: Voltage Pictures, HitRecord Films, Ram Bergman Productions
Жанр: Комедия, мелодрама
Год выпуска: 2013
Продолжительность: 01:26:13
Перевод: Профессиональный (дублированный)
Cубтитры: нет
Режиссер: Джозеф Гордон-Левитт / Joseph Gordon-Levitt
В ролях: Джозеф Гордон-Левитт, Скарлетт Йоханссон, Джулианна Мур, Тони Данца, Гленн Хедли, Бри Ларсон, Роб Браун, Джереми Люк, Пол Бен-Виктор, Италиа Риччи
Описание: Комичная история современного ловеласа, который из каждого любовного приключения вынужден спасаться бегством. Он еще не знает, что недалек тот час, когда ему все-таки придется остепениться…
*****
Возраст: зрителям, достигшим 16 лет
Рейтинг MPAA: - Лицам до 17 лет обязательно присутствие взрослого
*****
Меню: есть

Тип релиза: Blu-ray disc
Контейнер: BDMV
Видео: MPEG-4 AVC Video 32000 kbps 1080i / 25 fps / 16:9 / High Profile 4.1
Аудио: DTS-HD Master Audio Russian 1745 kbps 5.1 / 48 kHz / 1745 kbps / 16-bit (DTS Core: 5.1 / 48 kHz / 1509 kbps / 16-bit)
Аудио 2: Dolby Digital Audio Russian 640 kbps 5.1 / 48 kHz / 640 kbps / DN -4dB

BDInfo

Disc Title: Strasti Don Juana_2013
Disc Size: 23 759 831 956 bytes
Protection: AACS
BD-Java: No
Extras: 50Hz Content
BDInfo: 0.5.8
Notes:
BDINFO HOME:
Cinema Squid
http://www.cinemasquid.com/blu-ray/tools/bdinfo
INCLUDES FORUMS REPORT FOR:
AVS Forum Blu-ray Audio and Video Specifications Thread
http://www.avsforum.com/avs-vb/showthread.php?t=1155731
********************
PLAYLIST: 00002.MPLS
********************
<--- BEGIN FORUMS PASTE --->
Total   Video
Title                                                           Codec   Length  Movie Size      Disc Size       Bitrate Bitrate Main Audio Track                          Secondary Audio Track
-----                                                           ------  ------- --------------  --------------  ------- ------- ------------------                        ---------------------
00002.MPLS                                                      AVC     1:26:13 23 438 745 600  23 759 831 956  36,24   32,00   DTS-HD Master 5.1 1745Kbps (48kHz/16-bit) DD AC3 5.1 640Kbps
DISC INFO:
Disc Title:     Strasti Don Juana_2013
Disc Size:      23 759 831 956 bytes
Protection:     AACS
BD-Java:        No
Extras:         50Hz Content
BDInfo:         0.5.8
PLAYLIST REPORT:
Name:                   00002.MPLS
Length:                 1:26:13.560 (h:m:s.ms)
Size:                   23 438 745 600 bytes
Total Bitrate:          36,24 Mbps
VIDEO:
Codec                   Bitrate             Description
-----                   -------             -----------
MPEG-4 AVC Video        32000 kbps          1080i / 25 fps / 16:9 / High Profile 4.1
AUDIO:
Codec                           Language        Bitrate         Description
-----                           --------        -------         -----------
DTS-HD Master Audio             Russian         1745 kbps       5.1 / 48 kHz / 1745 kbps / 16-bit (DTS Core: 5.1 / 48 kHz / 1509 kbps / 16-bit)
Dolby Digital Audio             Russian         640 kbps        5.1 / 48 kHz / 640 kbps / DN -4dB
FILES:
Name            Time In         Length          Size            Total Bitrate
----            -------         ------          ----            -------------
00004.M2TS      0:00:00.000     1:26:13.560     23 438 745 600  36 244
CHAPTERS:
Number          Time In         Length          Avg Video Rate  Max 1-Sec Rate  Max 1-Sec Time  Max 5-Sec Rate  Max 5-Sec Time  Max 10Sec Rate  Max 10Sec Time  Avg Frame Size  Max Frame Size  Max Frame Time
------          -------         ------          --------------  --------------  --------------  --------------  --------------  --------------  --------------  --------------  --------------  --------------
1               0:00:00.000     0:07:03.320     32 040 kbps     60 718 kbps     00:01:46.880    37 737 kbps     00:01:36.320    34 861 kbps     00:01:38.200    160 186 bytes   917 017 bytes   00:01:37.320
2               0:07:03.320     0:07:51.320     31 996 kbps     52 465 kbps     00:07:05.119    35 909 kbps     00:07:04.599    33 956 kbps     00:07:08.039    159 981 bytes   698 121 bytes   00:12:26.119
3               0:14:54.640     0:06:12.079     31 991 kbps     49 786 kbps     00:19:21.960    34 483 kbps     00:20:23.680    33 475 kbps     00:18:30.920    159 957 bytes   736 159 bytes   00:19:22.000
4               0:21:06.720     0:07:29.359     32 006 kbps     50 384 kbps     00:24:19.520    35 187 kbps     00:24:19.040    33 587 kbps     00:24:14.000    160 031 bytes   923 462 bytes   00:24:18.280
5               0:28:36.080     0:06:57.000     31 993 kbps     49 701 kbps     00:30:45.680    35 532 kbps     00:30:50.680    33 759 kbps     00:30:45.640    159 963 bytes   699 707 bytes   00:34:00.080
6               0:35:33.080     0:06:33.599     32 013 kbps     48 198 kbps     00:40:46.200    35 379 kbps     00:39:31.600    33 109 kbps     00:39:31.720    160 065 bytes   729 777 bytes   00:40:46.239
7               0:42:06.680     0:09:39.640     31 998 kbps     48 505 kbps     00:43:26.200    34 909 kbps     00:48:20.920    33 352 kbps     00:42:22.160    159 991 bytes   723 089 bytes   00:51:45.840
8               0:51:46.320     0:06:14.159     31 993 kbps     49 995 kbps     00:52:08.840    35 270 kbps     00:55:57.200    33 699 kbps     00:52:26.760    159 966 bytes   693 035 bytes   00:56:01.239
9               0:58:00.480     0:05:01.719     31 984 kbps     51 405 kbps     01:01:59.080    34 712 kbps     01:02:04.320    33 635 kbps     01:01:57.520    159 922 bytes   887 063 bytes   01:01:59.120
10              1:03:02.200     0:08:02.079     31 994 kbps     40 108 kbps     01:06:31.400    34 208 kbps     01:03:38.520    32 948 kbps     01:03:38.640    159 968 bytes   675 215 bytes   01:11:04.280
11              1:11:04.280     0:06:53.480     32 017 kbps     45 246 kbps     01:12:52.080    34 514 kbps     01:12:52.080    33 176 kbps     01:12:52.080    160 087 bytes   515 397 bytes   01:11:37.560
12              1:17:57.760     0:08:15.800     31 972 kbps     50 073 kbps     01:19:05.320    34 729 kbps     01:19:49.840    33 337 kbps     01:19:50.840    159 873 bytes   789 977 bytes   01:19:05.360
STREAM DIAGNOSTICS:
File            PID             Type            Codec           Language                Seconds                 Bitrate                 Bytes           Packets
----            ---             ----            -----           --------                --------------          --------------          -------------   -----
00004.M2TS      4113 (0x1011)   0x1B            AVC                                     5173,400                32 001                  20 694 080 314  112 541 738
00004.M2TS      4352 (0x1100)   0x86            DTS-HD MA       rus (Russian)           5173,400                1 745                   1 128 694 332   6 936 597
00004.M2TS      4353 (0x1101)   0x81            AC3             rus (Russian)           5173,400                640                     413 885 440     2 425 110
<---- END FORUMS PASTE ---->
QUICK SUMMARY:
Disc Title: Strasti Don Juana_2013
Disc Size: 23 759 831 956 bytes
Protection: AACS
BD-Java: No
Playlist: 00002.MPLS
Size: 23 438 745 600 bytes
Length: 1:26:13.560
Total Bitrate: 36,24 Mbps
Video: MPEG-4 AVC Video / 32000 kbps / 1080i / 25 fps / 16:9 / High Profile 4.1
Audio: Russian / DTS-HD Master Audio / 5.1 / 48 kHz / 1745 kbps / 16-bit (DTS Core: 5.1 / 48 kHz / 1509 kbps / 16-bit)
Audio: Russian / Dolby Digital Audio / 5.1 / 48 kHz / 640 kbps / DN -4dB
********************
PLAYLIST: 00000.MPLS
********************
<--- BEGIN FORUMS PASTE --->
Total   Video
Title                                                           Codec   Length  Movie Size      Disc Size       Bitrate Bitrate Main Audio Track                          Secondary Audio Track
-----                                                           ------  ------- --------------  --------------  ------- ------- ------------------                        ---------------------
00000.MPLS                                                      AVC     0:00:28 28 108 800      23 759 831 956  7,85    7,29    DD AC3 2.0 256Kbps
DISC INFO:
Disc Title:     Strasti Don Juana_2013
Disc Size:      23 759 831 956 bytes
Protection:     AACS
BD-Java:        No
Extras:         50Hz Content
BDInfo:         0.5.8
PLAYLIST REPORT:
Name:                   00000.MPLS
Length:                 0:00:28.653 (h:m:s.ms)
Size:                   28 108 800 bytes
Total Bitrate:          7,85 Mbps
VIDEO:
Codec                   Bitrate             Description
-----                   -------             -----------
MPEG-4 AVC Video        7289 kbps           1080p / 23,976 fps / 16:9 / High Profile 4.1
AUDIO:
Codec                           Language        Bitrate         Description
-----                           --------        -------         -----------
Dolby Digital Audio             Russian         256 kbps        2.0 / 48 kHz / 256 kbps / DN -4dB
FILES:
Name            Time In         Length          Size            Total Bitrate
----            -------         ------          ----            -------------
00000.M2TS      0:00:00.000     0:00:07.006     1 603 584       1 831
00001.M2TS      0:00:07.006     0:00:16.683     25 872 384      12 406
00006.M2TS      0:00:23.690     0:00:04.963     632 832         1 020
CHAPTERS:
Number          Time In         Length          Avg Video Rate  Max 1-Sec Rate  Max 1-Sec Time  Max 5-Sec Rate  Max 5-Sec Time  Max 10Sec Rate  Max 10Sec Time  Avg Frame Size  Max Frame Size  Max Frame Time
------          -------         ------          --------------  --------------  --------------  --------------  --------------  --------------  --------------  --------------  --------------  --------------
1               0:00:00.000     0:00:28.653     7 289 kbps      21 534 kbps     00:00:14.139    13 638 kbps     00:00:07.257    13 383 kbps     00:00:07.173    38 004 bytes    321 699 bytes   00:00:14.514
STREAM DIAGNOSTICS:
File            PID             Type            Codec           Language                Seconds                 Bitrate                 Bytes           Packets
----            ---             ----            -----           --------                --------------          --------------          -------------   -----
00000.M2TS      4113 (0x1011)   0x1B            AVC                                     6,882                   1 720                   1 479 975       8 105
00001.M2TS      4113 (0x1011)   0x1B            AVC                                     16,600                  11 598                  24 065 355      131 020
00001.M2TS      4352 (0x1100)   0x81            AC3             rus (Russian)           16,600                  258                     534 528         3 132
00006.M2TS      4113 (0x1011)   0x1B            AVC                                     4,880                   923                     563 123         3 104
<---- END FORUMS PASTE ---->
QUICK SUMMARY:
Disc Title: Strasti Don Juana_2013
Disc Size: 23 759 831 956 bytes
Protection: AACS
BD-Java: No
Playlist: 00000.MPLS
Size: 28 108 800 bytes
Length: 0:00:28.653
Total Bitrate: 7,85 Mbps
Video: MPEG-4 AVC Video / 7289 kbps / 1080p / 23,976 fps / 16:9 / High Profile 4.1
Audio: Russian / Dolby Digital Audio / 2.0 / 48 kHz / 256 kbps / DN -4dB

Скриншоты

[Profile]  [PM] 
Display posts:    
Reply to topic

Current time is: 03-Jun 14:26

All times are UTC + 2



You cannot post new topics in this forum
You cannot reply to topics in this forum
You cannot edit your posts in this forum
You cannot delete your posts in this forum
You cannot vote in polls in this forum
You cannot attach files in this forum
You cannot download files in this forum