Двойной КОПец / Cop Out (Кевин Смит) [2010, Боевик, комедия, криминал, BDRemux, 1080p] Лицензия

Reply to topic
 
Author
Message

Varg ®

Gender: Unknown

Longevity: 12 years

Posts: 2929

Reputation: 0 [+] [-]

Varg · Post 10-Feb-2014 00:00

[Quote] 

Информация о фильме
Название: Двойной КОПец
Оригинальное название: Cop Out
Год выпуска: 2010
Жанр: Боевик, комедия, криминал
Выпущено: США, Warner Bros. Pictures
Режиссер: Кевин Смит
В ролях: Брюс Уиллис, Трэйси Морган, Адам Броди, Шонн Уильям Скотт, Мишель Трахтенберг, Джейсон Ли, Кевин Поллак, Марк Консуэлос, Гильермо Диаз, Эдриэн Мартинес, Ана де ла Регера
О фильме: История двух давних напарников — нью-йоркских полицейских, занятых поисками очень редкой и чертовски дорогой бейсбольной карточки, украденной у одного из них. Они вынуждены противостоять беспощадному гангстеру, просто помешанному на коллекционных вещицах. Джимми, всю жизнь проработавший в полиции, возлагал на пропавшую карточку все свои надежды, так как только с помощью нее он мог бы оплатить предстоящую свадьбу дочери, а Пол, его так называемый «напарник в борьбе с преступностью», столь зацикливается на предполагаемой неверности своей жены, что ему становится уже непросто отслеживать пропажу.

Файл
Качество: Blu-Ray Remux (1080p)
Видео: MPEG-4 AVC, 17852 Кбит/с, 1920x1080, 23.976 кадр/с
Аудио: Русский, украинский (AC3, 6 ch, 384 Кбит/с), английский (DTS-HD MA, 6 ch, 2160 Кбит/с)
Размер: 15.61 ГБ
Продолжительность: 01:47:30
Перевод: Дублированный (Лицензия R5)
Субтитры: Русские, английские
Сохранены оригинальные чаптеры как на Blu-Ray

Инфо-файл

Общее
Уникальный идентификатор : 218048430412372591281688022269947319633 (0xA40A99A3276C96C2B8EB5FE679E89551)
Полное имя : C:ЗагрузкиCop.Out.2010.BDRemux.(1080p).ExKinoRay.mkv
Формат : Matroska
Версия формата : Version 2
Размер файла : 15,6 Гбайт
Продолжительность : 1 ч. 47 м.
Режим общего битрейта : Переменный
Общий поток : 20,8 Мбит/сек
Название фильма : Двойной КОПец.2010.Сборка: ollan
Дата кодирования : UTC 2014-01-07 20:13:35
Программа кодирования : mkvmerge v5.6.0 ('Kenya Kane') built on May 27 2012 16:44:04
Библиотека кодирования : libebml v1.2.3 + libmatroska v1.3.0
Видео
Идентификатор : 1
Формат : VC-1
Профиль формата : Advanced@L3
Идентификатор кодека : V_MS/VFW/FOURCC / WVC1
Идентификатор кодека/Подсказка : Microsoft
Продолжительность : 1 ч. 47 м.
Ширина : 1920 пикселей
Высота : 1080 пикселей
Соотношение сторон : 16:9
Режим частоты кадров : Постоянный
Частота кадров : 23,976 кадра/сек
Цветовое пространство : YUV
Субдискретизация насыщенности : 4:2:0
Битовая глубина : 8 бит
Тип развёртки : Прогрессивная
Метод сжатия : С потерями
Default : Да
Forced : Нет
Аудио #1
Идентификатор : 2
Формат : AC-3
Формат/Информация : Audio Coding 3
Расширение режима : CM (complete main)
Параметр Endianness формата : Big
Идентификатор кодека : A_AC3
Продолжительность : 1 ч. 47 м.
Вид битрейта : Постоянный
Битрейт : 384 Кбит/сек
Каналы : 6 каналов
Расположение каналов : Front: L C R, Side: L R, LFE
Частота : 48,0 КГц
Битовая глубина : 16 бит
Метод сжатия : С потерями
Размер потока : 295 Мбайт (2%)
Заголовок : Дублированный
Язык : Russian
Default : Да
Forced : Да
Аудио #2
Идентификатор : 3
Формат : AC-3
Формат/Информация : Audio Coding 3
Расширение режима : CM (complete main)
Параметр Endianness формата : Big
Идентификатор кодека : A_AC3
Продолжительность : 1 ч. 47 м.
Вид битрейта : Постоянный
Битрейт : 384 Кбит/сек
Каналы : 6 каналов
Расположение каналов : Front: L C R, Side: L R, LFE
Частота : 48,0 КГц
Битовая глубина : 16 бит
Метод сжатия : С потерями
Размер потока : 295 Мбайт (2%)
Заголовок : Дублированный
Язык : Ukrainian
Default : Нет
Forced : Нет
Аудио #3
Идентификатор : 4
Формат : DTS
Формат/Информация : Digital Theater Systems
Профиль формата : MA / Core
Режим : 16
Параметр Endianness формата : Big
Идентификатор кодека : A_DTS
Продолжительность : 1 ч. 47 м.
Вид битрейта : Переменный
Битрейт : Неизвестно / 1509 Кбит/сек
Каналы : 6 каналов
Расположение каналов : Front: L C R, Side: L R, LFE
Частота : 48,0 КГц
Битовая глубина : 16 бит
Метод сжатия : Без потерь / Lossy
Язык : English
Default : Нет
Forced : Нет
Текст #1
Идентификатор : 5
Формат : UTF-8
Идентификатор кодека : S_TEXT/UTF8
Идентификатор кодека/Информация : UTF-8 Plain Text
Заголовок : Forced
Язык : Russian
Default : Да
Forced : Нет
Текст #2
Идентификатор : 6
Формат : UTF-8
Идентификатор кодека : S_TEXT/UTF8
Идентификатор кодека/Информация : UTF-8 Plain Text
Заголовок : Russian
Язык : Russian
Default : Нет
Forced : Нет
Текст #3
Идентификатор : 7
Формат : UTF-8
Идентификатор кодека : S_TEXT/UTF8
Идентификатор кодека/Информация : UTF-8 Plain Text
Язык : English
Default : Нет
Forced : Нет
Меню
00:00:00.000 : :Chapter 01
00:06:34.018 : :Chapter 02
00:10:37.261 : :Chapter 03
00:14:39.795 : :Chapter 04
00:17:02.396 : :Chapter 05
00:22:21.048 : :Chapter 06
00:25:45.961 : :Chapter 07
00:29:44.866 : :Chapter 08
00:34:02.582 : :Chapter 09
00:36:57.006 : :Chapter 10
00:40:43.607 : :Chapter 11
00:43:03.998 : :Chapter 12
00:46:52.643 : :Chapter 13
00:50:00.580 : :Chapter 14
00:55:29.159 : :Chapter 15
01:00:33.129 : :Chapter 16
01:00:45.391 : :Chapter 17
01:04:10.263 : :Chapter 18
01:10:32.937 : :Chapter 19
01:11:13.978 : :Chapter 20
01:18:01.009 : :Chapter 21
01:22:44.501 : :Chapter 22
01:25:50.979 : :Chapter 23
01:30:25.837 : :Chapter 24
01:33:56.672 : :Chapter 25
01:37:07.238 : :Chapter 26
01:43:52.935 : :Chapter 27
01:47:30.444 : :Chapter 28

Скриншоты

[Profile]  [PM] 
Display posts:    
Reply to topic

Current time is: 04-Dec 00:58

All times are UTC + 2



You cannot post new topics in this forum
You cannot reply to topics in this forum
You cannot edit your posts in this forum
You cannot delete your posts in this forum
You cannot vote in polls in this forum
You cannot attach files in this forum
You cannot download files in this forum