Мэри Поппинс / Mary Poppins (Роберт Стивенсон) [1964, Мюзикл, фэнтези, комедия, семейный, BDRemux, 1080p] DUB, P

Reply to topic
 
Author
Message

Varg ®

Gender: Unknown

Longevity: 12 years

Posts: 2929

Reputation: 0 [+] [-]

Varg · Post 10-Feb-2014 00:06

[Quote] 

Информация о фильме
Название: Мэри Поппинс
Оригинальное название: Mary Poppins
Год выпуска: 1964
Жанр: Мюзикл, фэнтези, комедия, семейный
Режиссер: Роберт Стивенсон
В ролях: Джули Эндрюс, Дик Ван Дайк, Дэвид Томлинсон, Глинис Джонс, Гермиона Бадделей, Рита Шоу, Карен Дотрис, Мэттью Гарбер, Эльза Ланчестер, Артур Тричер, Реджинальд Оуэн, Эд Винн, Джейн Дарвелл, Артур Мэлет, Марни Никсон
Описание: Семейство Бенкс озабоченно поисками няни для своих детей. И как это бывает только в сказке, она появилась прямо из воздуха, прекрасная, ни на кого не похожая. Как раз такая, какую мечтали бы иметь в своем доме всякие любящие родители. У неё не просто цветущий вид. Она непросто лучше всех умеет готовить, ходить по магазинам, одеваться, танцевать и воспитывать детей. Это всё лишь элементы, лишь составляющие. Нет, тут нечто большее — она именно совершенна, именно лишена недостатков, ибо она — сказочная. Как же не влюбиться в такую…

Страна: США, Великобритания
Студия: Walt Disney Productions
Продолжительность: 02:19:06
Перевод: Дублированный, профессиональный многоголосый
Файл
Качество: BDRemux 1080p
Видео: MPEG-4 AVC, 23059 Кбит/с, 1920x1080, 23.976 кадр/с
Аудио #1: Русский (AC3, 6 ch, 384 Кбит/с) / Дублированный
Аудио #2: Русский (AC3, 6 ch, 384 Кбит/с) / Профессиональный многоголосый
Аудио #3: Английский (DTS-HD HRA, 6 ch, 2046 Кбит/с)
Субтитры: Русские, английские

Скриншоты

MI

Общее
Уникальный идентификатор : 188130669505447934110385658645267214055 (0x8D88A623EF37A04EA76836A9CB6DEEE7)
Полное имя : D:Mои раздачиMary.Poppins.1964.BDRemux.(1080p)-MediaClub.mkv
Формат : Matroska
Версия формата : Version 4 / Version 2
Размер файла : 25,1 Гбайт
Продолжительность : 2 ч. 19 м.
Режим общего битрейта : Переменный
Общий поток : 25,8 Мбит/сек
Название фильма : -=MediaClub-kaspr=-
Дата кодирования : UTC 2013-11-21 12:42:14
Программа кодирования : mkvmerge v6.1.0 ('Old Devil') built on Mar 4 2013 09:10:42
Библиотека кодирования : libebml v1.3.0 + libmatroska v1.4.0
Видео
Идентификатор : 1
Формат : AVC
Формат/Информация : Advanced Video Codec
Профиль формата : High@L4.1
Параметр CABAC формата : Да
Параметр ReFrames формата : 4 кадра
Идентификатор кодека : V_MPEG4/ISO/AVC
Продолжительность : 2 ч. 19 м.
Вид битрейта : Переменный
Битрейт : 22,5 Мбит/сек
Максимальный битрейт : 37,0 Мбит/сек
Ширина : 1920 пикселей
Высота : 1080 пикселей
Соотношение сторон : 16:9
Режим частоты кадров : Постоянный
Частота кадров : 23,976 кадра/сек
Цветовое пространство : YUV
Субдискретизация насыщенности : 4:2:0
Битовая глубина : 8 бит
Тип развёртки : Прогрессивная
Бит/(Пиксели*Кадры) : 0.452
Размер потока : 21,8 Гбайт (87%)
Заголовок : -=MediaClub-kaspr=-
Default : Да
Forced : Нет
Аудио #1
Идентификатор : 2
Формат : AC-3
Формат/Информация : Audio Coding 3
Расширение режима : CM (complete main)
Параметр Endianness формата : Big
Идентификатор кодека : A_AC3
Продолжительность : 2 ч. 19 м.
Вид битрейта : Постоянный
Битрейт : 384 Кбит/сек
Каналы : 6 каналов
Расположение каналов : Front: L C R, Side: L R, LFE
Частота : 48,0 КГц
Битовая глубина : 16 бит
Метод сжатия : С потерями
Размер потока : 382 Мбайт (1%)
Заголовок : Dub
Язык : Russian
Default : Да
Forced : Нет
Аудио #2
Идентификатор : 3
Формат : AC-3
Формат/Информация : Audio Coding 3
Расширение режима : CM (complete main)
Параметр Endianness формата : Big
Идентификатор кодека : A_AC3
Продолжительность : 2 ч. 19 м.
Вид битрейта : Постоянный
Битрейт : 384 Кбит/сек
Каналы : 6 каналов
Расположение каналов : Front: L C R, Side: L R, LFE
Частота : 48,0 КГц
Битовая глубина : 16 бит
Метод сжатия : С потерями
Размер потока : 382 Мбайт (1%)
Заголовок : MVO
Язык : Russian
Default : Нет
Forced : Нет
Аудио #3
Идентификатор : 4
Формат : DTS
Формат/Информация : Digital Theater Systems
Профиль формата : HRA / Core
Режим : 16
Параметр Endianness формата : Big
Идентификатор кодека : A_DTS
Продолжительность : 2 ч. 19 м.
Вид битрейта : Постоянный
Битрейт : 2046 Кбит/сек / 1509 Кбит/сек
Каналы : 6 каналов
Расположение каналов : Front: L C R, Side: L R, LFE
Частота : 48,0 КГц
Битовая глубина : 24 бит
Метод сжатия : С потерями
Размер потока : 1,99 Гбайт (8%)
Язык : English
Default : Нет
Forced : Нет
Текст #1
Идентификатор : 5
Формат : UTF-8
Идентификатор кодека : S_TEXT/UTF8
Идентификатор кодека/Информация : UTF-8 Plain Text
Язык : Russian
Default : Нет
Forced : Нет
Текст #2
Идентификатор : 6
Формат : UTF-8
Идентификатор кодека : S_TEXT/UTF8
Идентификатор кодека/Информация : UTF-8 Plain Text
Язык : English
Default : Нет
Forced : Нет
Меню
00:00:00.000 : en:Chapter 01
00:05:54.145 : en:Chapter 02
00:08:56.702 : en:Chapter 03
00:12:37.506 : en:Chapter 04
00:18:36.865 : en:Chapter 05
00:22:57.667 : en:Chapter 06
00:31:39.147 : en:Chapter 07
00:36:08.875 : en:Chapter 08
00:41:37.203 : en:Chapter 09
00:47:21.338 : en:Chapter 10
00:56:50.865 : en:Chapter 11
01:02:03.553 : en:Chapter 12
01:09:32.585 : en:Chapter 13
01:19:43.403 : en:Chapter 14
01:23:55.030 : en:Chapter 15
01:30:39.142 : en:Chapter 16
01:39:09.777 : en:Chapter 17
01:44:31.139 : en:Chapter 18
01:47:35.991 : en:Chapter 19
01:56:46.541 : en:Chapter 20
02:05:30.022 : en:Chapter 21
02:13:28.208 : en:Chapter 22
02:16:29.347 : en:Chapter 23
02:17:45.423 : en:Chapter 24
[Profile]  [PM] 
Display posts:    
Reply to topic

Current time is: 04-Dec 00:22

All times are UTC + 2



You cannot post new topics in this forum
You cannot reply to topics in this forum
You cannot edit your posts in this forum
You cannot delete your posts in this forum
You cannot vote in polls in this forum
You cannot attach files in this forum
You cannot download files in this forum