Подставное тело / Body Double (Брайан Де Пальма) [1984, Триллер, драма, криминал, детектив, BDRemux, 1080p] P, A

Reply to topic
 
Author
Message

Varg ®

Gender: Unknown

Longevity: 12 years

Posts: 2929

Reputation: 0 [+] [-]

Varg · Post 10-Feb-2014 00:06

[Quote] 

Информация о фильме
Название: Подставное тело
Оригинальное название: Body Double
Год выпуска: 1984
Жанр: Триллер, драма, криминал, детектив
Выпущено: США / Columbia Pictures Corporation, Delphi II
Режиссер: Брайан Де Пальма
В ролях: Крейг Уоссон, Мелани Гриффит, Грегг Генри, Дебора Шелтон, Гай Бойд, Дэннис Франц, Дэвид Хэскелл, Ребекка Стэнли, Эл Израэл, Дуглас Уорхит
Описание: Актер Джейк снимается на вторых ролях в фильмах ужасов про вампиров. Однажды он возвращается домой после съемок фильма и обнаруживает свою подружку с другим мужчиной. Джейк вынужден искать себе новое жилье. Его знакомый Фрэнк, тоже актер, предлагает Джейку пожить у него, пока он будет в отъезде, а заодно и присмотреть за домом. Чтобы Джейк не скучал в одиночестве, Фрэнк рассказывает ему о маленьком «домашнем» развлечении. В здании напротив живет «любимая» соседка Фрэнка, сексапильная красавица Глория, которая каждый вечер раздевается у незанавешенного и хорошо освещенного окна. Увидев бесплатный стриптиз своими глазами, Джейк мечтает познакомиться лично с прекрасной Глорией. Знакомство происходит при необычных обстоятельствах, но в один из вечеров Джейк вместо полюбившегося шоу видит через окно, как Глорию убивают… Но это еще не все. Кто-то нанимает актрису, чтобы она заменила Глорию и продолжила импровизированное шоу «за стеклом».

Страна: США
Студия: Columbia Pictures Corporation, Delphi II
Продолжительность: 01:54:11
Перевод: Профессиональный многоголосый, авторский одноголосый
Файл
Качество: BDRemux 1080p
Видео: MPEG-4 AVC, 35998 Кбит/с, 1920x1080, 23.976 кадр/с
Аудио #1: Русский (AC3, 6 ch, 384 Кбит/с) / Профессиональный многоголосый
Аудио #2: Русский (AC3, 6 ch, 384 Кбит/с) / Авторский одноголосый (Г. Либергал)
Аудио #3: Русский (AC3, 6 ch, 448 Кбит/с) / Авторский одноголосый (С. Визгунов)
Аудио #4: Русский (AC3, 2 ch, 192 Кбит/с) / Авторский одноголосый (А. Михалёв)
Аудио #5: Русский (AC3, 2 ch, 192 Кбит/с) / Авторский одноголосый (Л. Володарский)
Аудио #6: Английский (DTS-HD MA, 6 ch, 4030 Кбит/с)
Субтитры: Русские, английские

Скриншоты

MI

Общее
Уникальный идентификатор : 174834371304004736682816768668476779931 (0x8387E00691EA1F3ABD690C3B8CA22D9B)
Полное имя : D:Mои раздачиBody.Double.1984.BDRemux-MediaClub.mkv
Формат : Matroska
Версия формата : Version 4 / Version 2
Размер файла : 33,1 Гбайт
Продолжительность : 1 ч. 54 м.
Режим общего битрейта : Переменный
Общий поток : 41,4 Мбит/сек
Название фильма : -=MediaClub-kaspr=-
Дата кодирования : UTC 2013-10-09 13:23:37
Программа кодирования : mkvmerge v6.1.0 ('Old Devil') built on Mar 4 2013 09:10:42
Библиотека кодирования : libebml v1.3.0 + libmatroska v1.4.0
Видео
Идентификатор : 1
Формат : AVC
Формат/Информация : Advanced Video Codec
Профиль формата : High@L4.1
Параметр CABAC формата : Да
Параметр ReFrames формата : 4 кадра
Идентификатор кодека : V_MPEG4/ISO/AVC
Продолжительность : 1 ч. 54 м.
Вид битрейта : Переменный
Максимальный битрейт : 38,0 Мбит/сек
Ширина : 1920 пикселей
Высота : 1080 пикселей
Соотношение сторон : 16:9
Режим частоты кадров : Постоянный
Частота кадров : 23,976 кадра/сек
Цветовое пространство : YUV
Субдискретизация насыщенности : 4:2:0
Битовая глубина : 8 бит
Тип развёртки : Прогрессивная
Заголовок : -=MediaClub=-
Default : Да
Forced : Да
Аудио #1
Идентификатор : 2
Формат : AC-3
Формат/Информация : Audio Coding 3
Расширение режима : CM (complete main)
Параметр Endianness формата : Big
Идентификатор кодека : A_AC3
Продолжительность : 1 ч. 54 м.
Вид битрейта : Постоянный
Битрейт : 384 Кбит/сек
Каналы : 6 каналов
Расположение каналов : Front: L C R, Side: L R, LFE
Частота : 48,0 КГц
Битовая глубина : 16 бит
Метод сжатия : С потерями
Размер потока : 314 Мбайт (1%)
Заголовок : MVO
Язык : Russian
Default : Да
Forced : Да
Аудио #2
Идентификатор : 3
Формат : AC-3
Формат/Информация : Audio Coding 3
Расширение режима : CM (complete main)
Параметр Endianness формата : Big
Идентификатор кодека : A_AC3
Продолжительность : 1 ч. 54 м.
Вид битрейта : Постоянный
Битрейт : 384 Кбит/сек
Каналы : 6 каналов
Расположение каналов : Front: L C R, Side: L R, LFE
Частота : 48,0 КГц
Битовая глубина : 16 бит
Метод сжатия : С потерями
Размер потока : 314 Мбайт (1%)
Заголовок : Либергал
Язык : Russian
Default : Нет
Forced : Нет
Аудио #3
Идентификатор : 4
Формат : AC-3
Формат/Информация : Audio Coding 3
Расширение режима : CM (complete main)
Параметр Endianness формата : Big
Идентификатор кодека : A_AC3
Продолжительность : 1 ч. 54 м.
Вид битрейта : Постоянный
Битрейт : 448 Кбит/сек
Каналы : 6 каналов
Расположение каналов : Front: L C R, Side: L R, LFE
Частота : 48,0 КГц
Битовая глубина : 16 бит
Метод сжатия : С потерями
Размер потока : 366 Мбайт (1%)
Заголовок : Визгунов
Язык : Russian
Default : Нет
Forced : Нет
Аудио #4
Идентификатор : 5
Формат : AC-3
Формат/Информация : Audio Coding 3
Расширение режима : CM (complete main)
Параметр Endianness формата : Big
Идентификатор кодека : A_AC3
Продолжительность : 1 ч. 54 м.
Вид битрейта : Постоянный
Битрейт : 192 Кбит/сек
Каналы : 2 канала
Расположение каналов : Front: L R
Частота : 48,0 КГц
Битовая глубина : 16 бит
Метод сжатия : С потерями
Размер потока : 157 Мбайт (0%)
Заголовок : Михлёв
Язык : Russian
Default : Нет
Forced : Нет
Аудио #5
Идентификатор : 6
Формат : AC-3
Формат/Информация : Audio Coding 3
Расширение режима : CM (complete main)
Параметр Endianness формата : Big
Идентификатор кодека : A_AC3
Продолжительность : 1 ч. 54 м.
Вид битрейта : Постоянный
Битрейт : 192 Кбит/сек
Каналы : 2 канала
Расположение каналов : Front: L R
Частота : 48,0 КГц
Битовая глубина : 16 бит
Метод сжатия : С потерями
Размер потока : 157 Мбайт (0%)
Заголовок : Володарский
Язык : Russian
Default : Нет
Forced : Нет
Аудио #6
Идентификатор : 7
Формат : DTS
Формат/Информация : Digital Theater Systems
Профиль формата : MA / Core
Режим : 16
Параметр Endianness формата : Big
Идентификатор кодека : A_DTS
Продолжительность : 1 ч. 54 м.
Вид битрейта : Переменный
Битрейт : Неизвестно / 1509 Кбит/сек
Каналы : 6 каналов
Расположение каналов : Front: L C R, Side: L R, LFE
Частота : 48,0 КГц
Битовая глубина : 24 бит
Метод сжатия : Без потерь / Lossy
Язык : English
Default : Нет
Forced : Нет
Текст #1
Идентификатор : 8
Формат : UTF-8
Идентификатор кодека : S_TEXT/UTF8
Идентификатор кодека/Информация : UTF-8 Plain Text
Язык : Russian
Default : Нет
Forced : Нет
Текст #2
Идентификатор : 9
Формат : UTF-8
Идентификатор кодека : S_TEXT/UTF8
Идентификатор кодека/Информация : UTF-8 Plain Text
Язык : English
Default : Нет
Forced : Нет
Меню
00:00:00.000 : en:Chapter 01
00:07:21.899 : en:Chapter 02
00:17:51.945 : en:Chapter 03
00:26:42.934 : en:Chapter 04
00:32:42.335 : en:Chapter 05
00:42:19.703 : en:Chapter 06
00:54:43.405 : en:Chapter 07
01:05:04.025 : en:Chapter 08
01:15:44.706 : en:Chapter 09
01:26:43.865 : en:Chapter 10
01:36:56.227 : en:Chapter 11
01:49:30.480 : en:Chapter 12
[Profile]  [PM] 
Display posts:    
Reply to topic

Current time is: 04-Dec 00:42

All times are UTC + 2



You cannot post new topics in this forum
You cannot reply to topics in this forum
You cannot edit your posts in this forum
You cannot delete your posts in this forum
You cannot vote in polls in this forum
You cannot attach files in this forum
You cannot download files in this forum