Врата дракона / Long men fei jia / The Flying Swords of Dragon Gate (Цуй Харк / Tsui Hark) [2011, боевик, приключения, BDRemux, 1080p] D, L2 | лицензия

Reply to topic
 
Author
Message

Varg ®

Gender: Unknown

Longevity: 12 years

Posts: 2929

Reputation: 0 [+] [-]

Varg · Post 10-Feb-2014 00:08

[Quote] 

«Легенда оживает»- Страна: Китай
Студия: Beijing Liangzi Group
Жанр: боевик, приключения
Год выпуска: 2011
Продолжительность: 02:02:23
Перевод: Профессиональный (дублированный) + любительский (двухголосый, закадровый)
Оригинальная аудиодорожка: китайский
Cубтитры: английский
Режиссер: Цуй Харк / Tsui Hark
В ролях: Джет Ли, Чжоу Сюнь, Чэнь Кунь, Луньмэй Квай, Юйчунь Ли, Мевис Фэн, Фан Сю-Вонг, Джа Хуи Лью, Цзянькуй Сунь, Чиен Шенг...
Роли дублировал: Владимир Рыбальченко
Описание: Согласно древней легенде каждые 60 лет сильнейшая песчаная буря смывает песок, под которым спрятан Золотой город, полный сокровищ. В ожидании бури в гостинице Врата Дракона собирается разномастная компания охотников за сокровищами Золотого города. Тут и император одной из китайских провинций и тайный министр другой провинции и две банды наемных убийц. Все они жаждут завладеть сокровищами, а ситуация усложняется тем, что кое у кого из постояльцев отеля есть личные счеты друг к другу.- -Качество видео: BDRemux 1080p
Формат видео: MKV
Видео: 1920x1080, MPEG-4 AVC Video 30 mbps 1080p / 23,976 fps / 16:9 / Main Profile 4.1
Аудио 1: Dolbi Digital Audio Russian 448 kbps 5.1 / 48 kHz / дублированный
Аудио 2: Dolbi Digital Audio Russian 192 kbps 2.0 / 48 kHz / двухголосый
Аудио 3: DTS-HD Master Audio Chineze 2156 kbps 5.1 / 48 kHz / 16-bit (DTS Core: 5.1 / 48 kHz / 1509 kbps / 16-bit)
Субтитры: SoftSub (srt)

MediaInfo

Общее
Полное имя : Vrata.drakona.2011.D.BDRemux.1080p.mkv
Формат : Matroska
Версия формата : Version 4 / Version 2
Размер файла : 19,4 Гбайт
Продолжительность : 2 ч. 2 м.
Режим общего битрейта : Переменный
Общий поток : 22,7 Мбит/сек
Дата кодирования : UTC 2013-04-03 22:16:35
Программа кодирования : mkvmerge v6.1.0 ('Old Devil') built on Mar 2 2013 14:32:37
Библиотека кодирования : libebml v1.3.0 + libmatroska v1.4.0
Видео
Идентификатор : 1
Формат : AVC
Формат/Информация : Advanced Video Codec
Профиль формата : High@L4.1
Параметр CABAC формата : Да
Параметр ReFrames формата : 4 кадра
Режим смешивания : Container profile=Unknown@0.0
Идентификатор кодека : V_MPEG4/ISO/AVC
Продолжительность : 2 ч. 2 м.
Вид битрейта : Переменный
Максимальный битрейт : 30,0 Мбит/сек
Ширина : 1920 пикселей
Высота : 1080 пикселей
Соотношение сторон : 16:9
Режим частоты кадров : Постоянный
Частота кадров : 23,976 кадра/сек
Стандарт вещания : NTSC
Цветовое пространство : YUV
Субдискретизация насыщенности : 4:2:0
Битовая глубина : 8 бит
Тип развёртки : Прогрессивная
Язык : Chinese
Default : Да
Forced : Нет
Основные цвета : BT.709
Характеристики трансфера : BT.709
Коэффициенты матрицы : BT.709
Аудио #1
Идентификатор : 2
Формат : AC-3
Формат/Информация : Audio Coding 3
Расширение режима : CM (complete main)
Параметр Endianness формата : Big
Идентификатор кодека : A_AC3
Продолжительность : 2 ч. 2 м.
Вид битрейта : Постоянный
Битрейт : 448 Кбит/сек
Каналы : 6 каналов
Расположение каналов : Front: L C R, Side: L R, LFE
Частота : 48,0 КГц
Битовая глубина : 16 бит
Метод сжатия : С потерями
Размер потока : 392 Мбайт (2%)
Заголовок : DUB
Язык : Russian
Default : Да
Forced : Нет
Аудио #2
Идентификатор : 3
Формат : AC-3
Формат/Информация : Audio Coding 3
Расширение режима : CM (complete main)
Параметр Endianness формата : Big
Идентификатор кодека : A_AC3
Продолжительность : 2 ч. 2 м.
Вид битрейта : Постоянный
Битрейт : 192 Кбит/сек
Каналы : 2 канала
Расположение каналов : Front: L R
Частота : 48,0 КГц
Битовая глубина : 16 бит
Метод сжатия : С потерями
Размер потока : 168 Мбайт (1%)
Заголовок : DVO
Язык : Russian
Default : Нет
Forced : Нет
Аудио #3
Идентификатор : 4
Формат : DTS
Формат/Информация : Digital Theater Systems
Профиль формата : MA / Core
Режим : 16
Параметр Endianness формата : Big
Идентификатор кодека : A_DTS
Продолжительность : 2 ч. 2 м.
Вид битрейта : Переменный
Битрейт : 2156 / 1509 Кбит/сек
Каналы : 6 каналов
Расположение каналов : Front: L C R, Side: L R, LFE
Частота : 48,0 КГц
Битовая глубина : 16 бит
Метод сжатия : Без потерь / Lossy
Язык : Chinese
Default : Нет
Forced : Нет
Текст
Идентификатор : 5
Формат : UTF-8
Идентификатор кодека : S_TEXT/UTF8
Идентификатор кодека/Информация : UTF-8 Plain Text
Язык : English
Default : Нет
Forced : Нет
Меню
00:00:00.000 : :00:00:00.000
00:09:23.480 : :00:09:23.480
00:20:15.631 : :00:20:15.631
00:28:36.965 : :00:28:36.965
00:41:07.799 : :00:41:07.799
00:50:50.965 : :00:50:50.965
01:02:35.794 : :01:02:35.794
01:11:14.187 : :01:11:14.187
01:20:10.931 : :01:20:10.931
01:31:03.500 : :01:31:03.500
01:44:52.453 : :01:44:52.453
01:53:34.224 : :01:53:34.224

Скриншоты

[Profile]  [PM] 
Display posts:    
Reply to topic

Current time is: 03-Dec 23:38

All times are UTC + 2



You cannot post new topics in this forum
You cannot reply to topics in this forum
You cannot edit your posts in this forum
You cannot delete your posts in this forum
You cannot vote in polls in this forum
You cannot attach files in this forum
You cannot download files in this forum