Мёбиус / Mobius (Эрик Рошан / Eric Rochant) [2013, Франция / Бельгия / Люксембург, триллер, драма, BDRip 1080p] Dub + Sub Fre, Eng + Original Fre

Reply to topic
 
Author
Message

Satyr ®

Gender: Unknown

Longevity: 12 years

Posts: 18518

Reputation: 56 [+] [-]

Satyr · Post 16-Apr-2014 00:58

[Quote] 

-Мёбиус / Mobius-Страна: Франция / Бельгия / Люксембург
Жанр: триллер, драма
Год выпуска: 2013
Продолжительность: 01:48:13-Перевод: Профессиональный (дублированный)
Cубтитры: французские, английские
Оригинальная аудиодорожка: французский-Режиссер: Эрик Рошан / Eric Rochant
В ролях: Жан Дюжарден, Сесиль Де Франс, Тим Рот, Эмили Декьенн, Владимир Меньшов, Алексей Горбунов, Бранка Катич, Максим Виторган, Эрик Вьеллар, Прасанна Пуванараджа-Описание: Жестокий и хладнокровный офицер с мрачным характером и проницательным умом, тайный агент ФСБ по кличке Моисей, ведет дело крупного российского олигарха, которого подозревают в фантастических финансовых махинациях. Кажется, он уже наступил на хвост змеи, но тут в его жизнь врывается страсть. Он, никогда в жизни не знавший нежных чувств, влюбляется в Алису, работающую трейдером в банковской структуре преступного олигарха. Что будет утром, когда окончится горячая любовная ночь?-Сэмпл-Тип релиза: BDRip 1080p
Контейнер: MKV
Видео: MPEG-4 AVC Video 16500 kbps 1920 x 800 p / 24 fps/ High Profile 4.1
Аудио: Dolby Digital Audio Russian 5.1 / 48 kHz / 384 kbps
Аудио: French: DTS Audio 5.1 / 48 kHz / 1509 kbps / 24-bit

Видеоряд от HDWinG

Mobius.2013.1080p.BluRay.x264.DTS-HDWinG
----------MEDiA iNFO------------
SOURCE TYPE.....: FRE.Bluray
ViDEO BiTRATE...: x264 L4.1 High @ 16500 kbps (60% of source)
RESOLUTiON......: 1920 x 800
FRAME RATE......: 24
RUNTiME.........: 1:48:13 (h:m:s)
AUDiO1..........: French DTS 5.1 @ 1509 kbps
SUBTiTLE........: French
iMDB............: http://www.imdb.com/title/tt2106550
Ratings.........: 5.9/10 from 473 users
ENCODER ........: mkv
----------X264 iNFO------------
x264 [info]: frame I:1053 Avg QP:19.03 size:195289
x264 [info]: frame P:31040 Avg QP:20.37 size:117705
x264 [info]: frame B:123740 Avg QP:22.20 size: 76822
x264 [info]: consecutive B-frames: 1.4% 3.9% 5.7% 13.0% 8.6% 43.7% 6.9% 15.2% 1.6%
Source HDWinG



MI

General
Complete name                    : X:\  -= Фильмы =-\Мёбиус (2013. Mobius) 1080p.mkv
Format                           : Matroska
File size                        : 13.9 GiB
Duration                         : 1h 48mn
Overall bit rate                 : 18.4 Mbps
Movie name                       : Release for RuTracker
Encoded date                     : UTC 2013-09-04 23:08:12
Writing application              : mkvmerge v4.9.1 ('Ich will') сборка от Jul 11 2011 23:53:15
Writing library                  : libebml v1.2.1 + libmatroska v1.1.1
Video
ID                               : 1
Format                           : AVC
Format/Info                      : Advanced Video Codec
Format profile                   : High@L4.1
Format settings, CABAC           : Yes
Format settings, ReFrames        : 5 frames
Muxing mode                      : Container profile=Unknown@4.1
Codec ID                         : V_MPEG4/ISO/AVC
Duration                         : 1h 48mn
Bit rate                         : 16.5 Mbps
Width                            : 1 920 pixels
Height                           : 800 pixels
Display aspect ratio             : 2.40:1
Frame rate                       : 24.000 fps
Color space                      : YUV
Chroma subsampling               : 4:2:0
Bit depth                        : 8 bits
Scan type                        : Progressive
Bits/(Pixel*Frame)               : 0.448
Stream size                      : 12.2 GiB (88%)
Title                            : Mobius.2013.1080p.BluRay.x264.DTS-HDWinG
Writing library                  : x264 core 132 r2323+704+51 d571b1c tMod [8-bit@4:2:0 X86_64]
Encoding settings                : cabac=1 / ref=5 / deblock=1:-3:-3 / analyse=0x3:0x113 / me=umh / subme=11 / psy=1 / fade_compensate=0.00 / psy_rd=1.05:0.00 / mixed_ref=1 / me_range=32 / chroma_me=1 / trellis=2 / 8x8dct=1 / cqm=0 / deadzone=21,11 / fast_pskip=0 / chroma_qp_offset=-2 / threads=36 / lookahead_threads=6 / sliced_threads=0 / nr=0 / decimate=0 / interlaced=0 / bluray_compat=0 / constrained_intra=0 / fgo=0 / bframes=8 / b_pyramid=2 / b_adapt=2 / b_bias=0 / direct=3 / weightb=1 / open_gop=0 / weightp=2 / keyint=240 / keyint_min=24 / scenecut=40 / intra_refresh=0 / rc_lookahead=240 / rc=2pass / mbtree=1 / bitrate=16500 / ratetol=1.0 / qcomp=0.70 / qpmin=0 / qpmax=69 / qpstep=4 / cplxblur=20.0 / qblur=0.5 / ip_ratio=1.20 / aq=4:0.85 / aq-sensitivity=10.00 / aq-factor=1.00:1.00:1.00 / aq2=0 / aq3=0
Language                         : English
Audio #1
ID                               : 2
Format                           : AC-3
Format/Info                      : Audio Coding 3
Mode extension                   : CM (complete main)
Codec ID                         : A_AC3
Duration                         : 1h 48mn
Bit rate mode                    : Constant
Bit rate                         : 384 Kbps
Channel(s)                       : 6 channels
Channel positions                : Front: L C R, Side: L R, LFE
Sampling rate                    : 48.0 KHz
Bit depth                        : 16 bits
Stream size                      : 297 MiB (2%)
Title                            : Дубляж
Language                         : Russian
Audio #2
ID                               : 3
Format                           : DTS
Format/Info                      : Digital Theater Systems
Codec ID                         : A_DTS
Duration                         : 1h 48mn
Bit rate mode                    : Constant
Bit rate                         : 1 510 Kbps
Channel(s)                       : 6 channels
Channel positions                : Front: L C R, Side: L R, LFE
Sampling rate                    : 48.0 KHz
Bit depth                        : 24 bits
Stream size                      : 1.14 GiB (8%)
Language                         : French
Text #1
ID                               : 4
Format                           : UTF-8
Codec ID                         : S_TEXT/UTF8
Codec ID/Info                    : UTF-8 Plain Text
Language                         : English
Text #2
ID                               : 5
Format                           : UTF-8
Codec ID                         : S_TEXT/UTF8
Codec ID/Info                    : UTF-8 Plain Text
Title                            : forced
Language                         : French
Menu
00:00:00.000                     : en:00:00:00.000
00:07:23.083                     : en:00:07:23.083
00:10:34.833                     : en:00:10:34.833
00:13:58.667                     : en:00:13:58.667
00:24:26.792                     : en:00:24:26.792
00:39:36.167                     : en:00:39:36.167
00:47:42.500                     : en:00:47:42.500
00:55:48.417                     : en:00:55:48.417
01:07:19.250                     : en:01:07:19.250
01:21:07.708                     : en:01:21:07.708
01:27:09.125                     : en:01:27:09.125
01:43:42.792                     : en:01:43:42.792

Скриншоты

Зеркало

[Profile]  [PM] 
Display posts:    
Reply to topic

Current time is: 03-Dec 23:58

All times are UTC + 2



You cannot post new topics in this forum
You cannot reply to topics in this forum
You cannot edit your posts in this forum
You cannot delete your posts in this forum
You cannot vote in polls in this forum
You cannot attach files in this forum
You cannot download files in this forum