Тайная жизнь домашних животных / The Secret Life of Pets (Ярроу Чейни, Крис Рено) [2016 г., Мультфильм, комедия, семейный, HDRip]|iTunes|

Reply to topic
 
Author
Message

groozin ®

Gender: Male

Longevity: 3 years 1 month

Posts: 46

Reputation: 0 [+] [-]

Location: ЛНР

groozin · Post 31-Aug-2016 11:01

[Quote] 

Тайная жизнь домашних животных
/ The Secret Life of Pets
-«Думаете, они ждут вас у порога весь день?»-
Год выпуска: 2016
Страна: Япония, США / Dentsu, Fuji Television Network Inc., Illumination Entertainment, Universal Pictures
Жанр: Мультфильм, комедия, семейный
Продолжительность: 01:26:27
Перевод: Дублированный |iTunes|
Режиссеры: Ярроу Чейни, Крис Рено
В ролях: Луис С.К., Эрик Стоунстрит, Кевин Харт, Дженни Слейт, Элли Кемпер, Альберт Брукс, Лэйк Белл, Дэна Карви, Хэннибал Бёресс, Бобби Мойнахан

Описание:
Что делают домашние животные пока хозяева пропадают на работе? С тоской смотрят в окно? Смиренно дремлют на коврике у двери? Как бы не так. Они ведут свою тайную жизнь.
-18.11.2016: HDTVRip с чистым звуком
заменен на HDRip (iTunes), релиз без рекламы
-6+         Зрителям, достигшим 6 лет- -

MediaInfo:

Общее
Полное имя : E:\TORRENTY\Films\Tajnaya.Jzizn'.Domashnih.Jzivotnyh.HDRip.1400MB\Tajnaya.Jzizn'.Domashnih.Jzivotnyh.HDRip.1400MB\Tajnaya.Jzizn'.Domashnih.Jzivotnyh.HDRip.1400MB.avi
Формат : AVI
Формат/Информация : Audio Video Interleave
Размер файла : 1,37 Гбайт
Продолжительность : 1 ч. 26 м.
Общий поток : 2266 Кбит/сек
Программа кодирования : VirtualDubMod 1.5.10.2 (build 2540/release)
Библиотека кодирования : VirtualDubMod build 2540/release
Видео
Идентификатор : 0
Формат : MPEG-4 Visual
Профиль формата : Advanced Simple@L5
Параметр BVOP формата : 2
Параметр QPel формата : Нет
Параметр GMC формата : Без точки перехода
Параметр матрицы формата : Default (MPEG)
Идентификатор кодека : XVID
Идентификатор кодека/Подсказка : XviD
Продолжительность : 1 ч. 26 м.
Битрейт : 1873 Кбит/сек
Ширина : 720 пикселей
Высота : 384 пикселя
Соотношение сторон : 1,85:1
Частота кадров : 23,976 (24000/1001) кадра/сек
Цветовое пространство : YUV
Субдискретизация насыщенности : 4:2:0
Битовая глубина : 8 бит
Тип развёртки : Прогрессивная
Метод сжатия : С потерями
Бит/(Пиксели*Кадры) : 0.283
Размер потока : 1,13 Гбайт (83%)
Библиотека кодирования : XviD 1.2.1 (UTC 2008-12-04)
Аудио
Идентификатор : 1
Формат : AC-3
Формат/Информация : Audio Coding 3
Расширение режима : CM (complete main)
Параметр Endianness формата : Big
Идентификатор кодека : 2000
Продолжительность : 1 ч. 26 м.
Вид битрейта : Постоянный
Битрейт : 384 Кбит/сек
Каналы : 6 каналов
Расположение каналов : Front: L C R, Side: L R, LFE
Частота : 48,0 КГц
Частота кадров : 31,250 кадров/сек (1536 spf)
Метод сжатия : С потерями
Задержка видео : 22 мс.
Размер потока : 237 Мбайт (17%)
Выравнивание : Разделение по промежуткам
Продолжительность промежутка : 42 мс. (1,00 видеокадр)
Время предзагрузки промежутка : 500 мс.
Качество: HDRip
Формат: AVI
Данные видео: 720x384, XviD, 1873 Kbps, 23,976 fps, 0.283 Бит/(Пиксели*Кадры)
Аудио: русский: AC3, 384 Kbps, 6 ch, 48 kHz

Субтитры: нет

Скриншоты


[Profile]  [PM] 
Display posts:    
Reply to topic

Current time is: 17-Oct 19:33

All times are UTC + 2



You cannot post new topics in this forum
You cannot reply to topics in this forum
You cannot edit your posts in this forum
You cannot delete your posts in this forum
You cannot vote in polls in this forum
You cannot attach files in this forum
You cannot download files in this forum