Ледниковый период: Столкновение неизбежно / Ice Age: Collision Course (Майк Тёрмайер, Гален Т. Чу) [2016 г., Мультфильм, полнометражный, комедия, приключения, семейный, HDRip]|iTunes|

Reply to topic
 
Author
Message

groozin ®

Gender: Male

Longevity: 3 years 1 month

Posts: 46

Reputation: 0 [+] [-]

Location: ЛНР

groozin · Post 30-Sep-2016 13:08

[Quote] 

Ледниковый период: Столкновение неизбежно
/ Ice Age: Collision Course
-«Маленький шаг для него. Большая проблема для всех»-
Год выпуска: 2016
Страна: США / 20th Century Fox Animation, Blue Sky Studios
Жанр: Мультфильм, полнометражный, комедия, приключения, семейный
Продолжительность: 01:34:33
Перевод: Дублированный |iTunes|
Режиссеры: Майк Тёрмайер, Гален Т. Чу
В ролях: Ник Офферман, Адам Дивайн, Саймон Пегг, Дженнифер Лопез, Мелисса Рауш, Стефани Беатриз, Джон Легуизамо, Макс Гринфилд, Шонн Уильям Скотт, Дэнис Лири

Описание:
Отчаянная погоня за неуловимым желудем катапультирует Скрата прямо в космос, где он случайно запускает целую серию космических событий. Именно они изменят весь мир Ледникового периода и станут реальной угрозой для него. Чтобы спастись, Сид, Мэнни, Диего и остальные звери должны покинуть свои дома, отправиться в забавное и захватывающее приключение в экзотические новые земли и встретиться со множеством красочных новых персонажей.
-6+         Рейтинг R- зрителям, достигшим 6 лет- -

MediaInfo:

Общее
Полное имя : E:\TORRENTY\Films\Lednikovyj.Period.2016.HDRip.1400MB\Lednikovyj.Period.2016.HDRip.1400MB\Lednikovyj.Period.2016.HDRip.1400MB.avi
Формат : AVI
Формат/Информация : Audio Video Interleave
Размер файла : 1,37 Гбайт
Продолжительность : 1 ч. 34 м.
Общий поток : 2070 Кбит/сек
Программа кодирования : VirtualDubMod 1.5.10.2 (build 2540/release)
Библиотека кодирования : VirtualDubMod build 2540/release
Видео
Идентификатор : 0
Формат : MPEG-4 Visual
Профиль формата : Advanced Simple@L5
Параметр BVOP формата : 2
Параметр QPel формата : Нет
Параметр GMC формата : Без точки перехода
Параметр матрицы формата : Default (MPEG)
Идентификатор кодека : XVID
Идентификатор кодека/Подсказка : XviD
Продолжительность : 1 ч. 34 м.
Битрейт : 1677 Кбит/сек
Ширина : 720 пикселей
Высота : 304 пикселя
Соотношение сторон : 2,35:1
Частота кадров : 23,976 (24000/1001) кадра/сек
Цветовое пространство : YUV
Субдискретизация насыщенности : 4:2:0
Битовая глубина : 8 бит
Тип развёртки : Прогрессивная
Метод сжатия : С потерями
Бит/(Пиксели*Кадры) : 0.320
Размер потока : 1,11 Гбайт (81%)
Библиотека кодирования : XviD 1.2.1 (UTC 2008-12-04)
Аудио
Идентификатор : 1
Формат : AC-3
Формат/Информация : Audio Coding 3
Расширение режима : CM (complete main)
Параметр Endianness формата : Big
Идентификатор кодека : 2000
Продолжительность : 1 ч. 34 м.
Вид битрейта : Постоянный
Битрейт : 384 Кбит/сек
Каналы : 6 каналов
Расположение каналов : Front: L C R, Side: L R, LFE
Частота : 48,0 КГц
Частота кадров : 31,250 кадров/сек (1536 spf)
Метод сжатия : С потерями
Размер потока : 260 Мбайт (19%)
Выравнивание : Разделение по промежуткам
Продолжительность промежутка : 42 мс. (1,00 видеокадр)
Время предзагрузки промежутка : 500 мс.
Качество: HDRip
Формат: AVI
Данные видео: 720x304, XviD, 1677 Kbps, 23,976 fps, 0.320 Бит/(Пиксели*Кадры)
Аудио: русский: AC3, 384 Kbps, 6 ch, 48 kHz

Субтитры: нет

Скриншоты


[Profile]  [PM] 
Display posts:    
Reply to topic

Current time is: 14-Oct 13:34

All times are UTC + 2



You cannot post new topics in this forum
You cannot reply to topics in this forum
You cannot edit your posts in this forum
You cannot delete your posts in this forum
You cannot vote in polls in this forum
You cannot attach files in this forum
You cannot download files in this forum