Единичка (Кирилл Белевич) [2015, Военный, драма , WEB-DLRip-AVC 1080p ]

Reply to topic
 
Author
Message

Враг Нароода ®

Gender: Unknown

Longevity: 4 years 9 months

Posts: 328

Reputation: 1 [+] [-]

Враг Нароода · Post 10-Jul-2015 10:45

[Quote] 

--Единичка -- --Год выпуска: 2015
Выпущено Россия , Марс Медиа Энтертейнмент
Жанр: Военный, драма
Продолжительность: 01:44:55
Перевод :Не требуется
Субтитры: Нет-- --Режиссер: Кирилл Белевич--В ролях: Андрей Мерзликин, Илья Коробко, Анна Прус, Арина Борисова, Александр Вершинин, Михаил Евланов, Микаэл Джанибекян, Сергей Габриэлян, Добрыня Белевич-Оболенский, Якуб Здруйковский-- Август 1944-го. Советские войска продолжают наступление в Восточной Польше. Подразделение старшего лейтенанта Егорова получает задание — удержать мост, через который планируется переправа частей Советской Армии. Прибыв на позицию, бойцы обнаруживают разрушенный монастырь, а в нем — группу глухих сирот с воспитательницей Евой.
Утратив веру, она нашла смысл жизни в спасении немощных и беззащитных детей. Лейтенант Егоров оказывается перед сложным выбором — выполняя приказ командования, он будет вынужден поставить под угрозу жизнь маленьких поляков. Артиллеристы изо всех сил стараются не допустить смерти детей…
-- --Качество :WEB-DLRip-AVC 1080p
Формат: MPEG-4
Видео кодек: H264
Видео: 6252Кбит/сек,1920х800(2.40),в 25.000кадр/сек,AVC(Baseline@L4.0)(1Ref Frames)
Аудио кодек: AAC
Аудио Russian Dolby Digital 5.1:467Кбит/сек,48.0КГц,6каналов,AAC,(Version4)--

Скриншоты

--

MediaInfo

Общее
Полное имя : D:\Н А Ш Е К И Н О\Единичка\EDINI4KA_2015_RUS[RUSSIA]_DD5.1_H264_Nikolai.Baranov_WEB-DLRip-AVC_(1080p)\Unity_2015_RUS[RUSSIA]_DD5.1_H264_N.B_WEB-DLRip-AVC_1080p.mp4
Формат : MPEG-4
Профиль формата : Base Media
Идентификатор кодека : isom
Размер файла : 4,93 Гбайт
Продолжительность : 1 ч. 44 м.
Режим общего битрейта : Переменный
Общий поток : 6724 Кбит/сек
Дата кодирования : UTC 2015-07-08 23:14:35
Дата пометки : UTC 2015-07-08 23:14:35
Видео
Идентификатор : 1
Формат : AVC
Формат/Информация : Advanced Video Codec
Профиль формата : Baseline@L4
Параметр CABAC формата : Нет
Параметр ReFrames формата : 1 кадр
Параметр GOP формата : M=1, N=12
Идентификатор кодека : avc1
Идентификатор кодека/Информация : Advanced Video Coding
Продолжительность : 1 ч. 44 м.
Вид битрейта : Переменный
Битрейт : 6252 Кбит/сек
Максимальный битрейт : 9000 Кбит/сек
Ширина : 1920 пикселей
Высота : 800 пикселей
Соотношение сторон : 2,40:1
Режим частоты кадров : Постоянный
Частота кадров : 25,000 кадров/сек
Частота кадров в оригинале : 24,000 кадра/сек
Цветовое пространство : YUV
Субдискретизация насыщенности : 4:2:0
Битовая глубина : 8 бит
Тип развёртки : Прогрессивная
Бит/(Пиксели*Кадры) : 0.163
Размер потока : 4,58 Гбайт (93%)
Язык : English
Дата кодирования : UTC 2015-07-09 16:35:01
Дата пометки : UTC 2015-07-08 23:24:52
Аудио
Идентификатор : 2
Формат : AAC
Формат/Информация : Advanced Audio Codec
Профиль формата : LC
Идентификатор кодека : 40
Продолжительность : 1 ч. 44 м.
Вид битрейта : Переменный
Битрейт : 467 Кбит/сек
Максимальный битрейт : 623 Кбит/сек
Каналы : 2 канала
Channel(s)_Original : 6 каналов
Расположение каналов : Front: L C R, Side: L R, LFE
Частота : 48,0 КГц
Метод сжатия : С потерями
Размер потока : 352 Мбайт (7%)
Дата кодирования : UTC 2015-07-08 23:17:14
Дата пометки : UTC 2015-07-08 23:24:52
-- ---- -- --Релиз от: Nikolai.Baranov -- -- -- --
[Profile]  [PM] 
Display posts:    
Reply to topic

Current time is: 26-Jun 17:48

All times are UTC + 2



You cannot post new topics in this forum
You cannot reply to topics in this forum
You cannot edit your posts in this forum
You cannot delete your posts in this forum
You cannot vote in polls in this forum
You cannot attach files in this forum
You cannot download files in this forum