Батальонъ (Дмитрий Месхиев) [2015, Драма, военный, исторический , WEB-DLRip-AVC 1080p ]

Reply to topic
 
Author
Message

Враг Нароода ®

Gender: Unknown

Longevity: 4 years 7 months

Posts: 314

Reputation: 1 [+] [-]

Враг Нароода · Post 11-Jul-2015 10:04

[Quote] 

-- Батальонъ -- --Год выпуска: 2015
Выпущено Россия , Корнер Ворк, Art Pictures Studio
Жанр: Драма, военный, исторический
Продолжительность: 02:03:45
Перевод :Не требуется
Субтитры: Нет-- --Режиссер: Дмитрий Месхиев--В ролях: Мария Аронова, Мария Кожевникова, Ирина Рахманова, Марат Башаров, Янина Малинчик, Евгений Дятлов, Яков Шамшин, Алёна Кучкова, Валерия Шкирандо, Николай Аузин, Владимир Зайцев, Екатерина Вилкова, Сергей Тэсслер, Юлия Яновская (II), Дмитрий Шевченко, Артур Ваха-- Весна 1917-го года. Февральская революция изменила жизнь России и ход Великой войны. Государь уже отрёкся от престола. В окопах, где противостояние с немцами длится уже не один год, вовсю ведут свою пропаганду большевики. Они призывают к миру с неприятелем. Российское офицерство фактически ничего не может решить без одобрения так называемых солдатских комитетов. Армия находится на пороге окончательного разложения.
По приказу Временного правительства для поднятия боевого духа создаётся женский «Батальон смерти» под командованием георгиевского кавалера Марии Бочкарёвой. Своей службой «Батальон смерти» подаёт пример храбрости, мужества и спокойствия, поднимает дух солдат и доказывает, что каждая из этих женщин-героев достойна звания воина русской армии.
-- --Качество :WEB-DLRip-AVC 1080p
Формат: MPEG-4
Видео кодек: H264
Видео: 6253Кбит/сек,1920х800(2.40),в 25.000кадр/сек,AVC(Baseline@L4.0)(1Ref Frames)
Аудио кодек: AAC
Аудио Russian Dolby Digital 5.1:439Кбит/сек,48.0КГц,6каналов,AAC,(Version4)--

Скриншоты

--

MediaInfo

Общее
Полное имя : D:\Н А Ш Е К И Н О\Батальонъ\BATTALION_2015_RUS[RUSSIA]_DD5.1_H264_Nikolai.Baranov_WEB-DLRip-AVC_(1080p)\Battalion_2015_RUS[RUSSIA]_DD5.1_H264_N.B_WEB-DLRip-AVC_1080p.mp4
Формат : MPEG-4
Профиль формата : Base Media
Идентификатор кодека : isom
Размер файла : 5,77 Гбайт
Продолжительность : 2 ч. 3 м.
Режим общего битрейта : Переменный
Общий поток : 6695 Кбит/сек
Дата кодирования : UTC 2015-07-09 16:53:53
Дата пометки : UTC 2015-07-09 16:53:53
Видео
Идентификатор : 1
Формат : AVC
Формат/Информация : Advanced Video Codec
Профиль формата : Baseline@L4
Параметр CABAC формата : Нет
Параметр ReFrames формата : 1 кадр
Параметр GOP формата : M=1, N=12
Идентификатор кодека : avc1
Идентификатор кодека/Информация : Advanced Video Coding
Продолжительность : 2 ч. 3 м.
Вид битрейта : Переменный
Битрейт : 6253 Кбит/сек
Максимальный битрейт : 9000 Кбит/сек
Ширина : 1920 пикселей
Высота : 800 пикселей
Соотношение сторон : 2,40:1
Режим частоты кадров : Постоянный
Частота кадров : 25,000 кадров/сек
Частота кадров в оригинале : 24,000 кадра/сек
Цветовое пространство : YUV
Субдискретизация насыщенности : 4:2:0
Битовая глубина : 8 бит
Тип развёртки : Прогрессивная
Бит/(Пиксели*Кадры) : 0.163
Размер потока : 5,39 Гбайт (93%)
Язык : Russian
Дата кодирования : UTC 2015-07-10 11:26:47
Дата пометки : UTC 2015-07-09 17:00:39
Аудио
Идентификатор : 2
Формат : AAC
Формат/Информация : Advanced Audio Codec
Профиль формата : LC
Идентификатор кодека : 40
Продолжительность : 2 ч. 3 м.
Вид битрейта : Переменный
Битрейт : 439 Кбит/сек
Каналы : 2 канала
Channel(s)_Original : 6 каналов
Расположение каналов : Front: L C R, Side: L R, LFE
Частота : 48,0 КГц
Метод сжатия : С потерями
Размер потока : 387 Мбайт (7%)
Дата кодирования : UTC 2015-07-10 11:26:47
Дата пометки : UTC 2015-07-09 17:00:39
-- ---- -- --Релиз от: Nikolai.Baranov -- -- -- --
[Profile]  [PM] 
Display posts:    
Reply to topic

Current time is: 19-Apr 10:15

All times are UTC + 2



You cannot post new topics in this forum
You cannot reply to topics in this forum
You cannot edit your posts in this forum
You cannot delete your posts in this forum
You cannot vote in polls in this forum
You cannot attach files in this forum
You cannot download files in this forum