УЧИЛКА / TEACHER (Алексей Петрухин) [2015, Драма, боевик, криминал , WEB-DL 1080р ] [DD5.1] [Цифровая лицензия iTunes]

Reply to topic
 
Author
Message

Враг Нароода ®

Gender: Unknown

Longevity: 4 years 7 months

Posts: 314

Reputation: 1 [+] [-]

Враг Нароода · Post 19-Oct-2016 16:42

[Quote] 

--УЧИЛКА / TEACHER-- --Год выпуска: 2015
Выпущено: Россия , , Russian Film Group, Startfilm Group
Жанр: Драма, боевик, криминал
Продолжительность: 02:06:55
Озвучка : -Русский-Цифровая лицензия iTunes
Субтитры: НЕТ
--MDB --Режиссер:
Алексей Петрухин--В ролях: Ирина Купченко, Анна Чурина, Роза Хайруллина, Андрей Мерзликин, Алиса Гребенщикова, Ольга Егорова, Анастасия Пономарева, Дарья Дубникова, Акмал Аблаев, Алексей Лукин, Валентин Садики, Василиса Елпатьевская, Марк Тюриков, Алексей Огурцов, Руслан Калимуллин
-- Внезапную тишину школьных коридоров оглашает выстрел. Доведенная до крайности учительница истории берет в заложники целый класс. Но вскоре ситуация в корне меняется и заложницей становится она сама…-- --Качество :WEB-DL 1080р
Формат: MKV
Видео кодек: H264
Видео: 5254Кбит/сек,1920х1080(16.9),в 25.038кадр/сек,AVC (High@L4)(CABAC/2 Ref Frames)
Аудио Кодек:AC3
Аудио #1:AC3 , 384 Kbps, 48.0 KHz, 6 ch-Русский-- --

MediaInfo

Общее
Уникальный идентификатор : 206786973136652112498852544937480053916 (0x9B91B8ED105A5F7C9F9A1DA21C16649C)
Полное имя : C:\МОЙ ДОСУГ\НАШЕ КИНО\УЧИЛКА\TEACHER_2015_RUS_iTunes_DD5.1_N.B_WEB-DL_1080p\TEACHER_2015_RUS_iTunes_DD5.1_N.B_WEB-DL_1080p.mkv
Формат : Matroska
Версия формата : Version 4 / Version 2
Размер файла : 5,04 Гбайт
Продолжительность : 2 ч. 7 м.
Режим общего битрейта : Переменный
Общий поток : 5640 Кбит/сек
Название фильма : TEACHER_2015_RUS_iTunes_DD5.1_N.B_WEB-DL_1080p
Дата кодирования : UTC 2016-10-16 19:06:42
Программа кодирования : mkvmerge v9.4.2 ('So High') 64bit
Библиотека кодирования : libebml v1.3.4 + libmatroska v1.4.5
Видео
Идентификатор : 1
Формат : AVC
Формат/Информация : Advanced Video Codec
Профиль формата : High@L4
Параметр CABAC формата : Да
Параметр ReFrames формата : 2 кадра
Параметр GOP формата : M=2, N=15
Идентификатор кодека : V_MPEG4/ISO/AVC
Продолжительность : 2 ч. 7 м.
Вид битрейта : Переменный
Битрейт : 5254 Кбит/сек
Максимальный битрейт : 16,0 Мбит/сек
Ширина : 1920 пикселей
Высота : 1080 пикселей
Соотношение сторон : 16:9
Режим частоты кадров : Переменный
Частота кадров : 25,038 кадров/сек
Частота кадров в оригинале : 29,970 (30000/1001) кадров/сек
Цветовое пространство : YUV
Субдискретизация насыщенности : 4:2:0
Битовая глубина : 8 бит
Тип развёртки : Прогрессивная
Бит/(Пиксели*Кадры) : 0.101
Размер потока : 4,69 Гбайт (93%)
Заголовок : TEACHER_2015_RUS_iTunes_DD5.1_N.B_WEB-DL_1080p
Язык : Russian
Default : Нет
Forced : Нет
Аудио
Идентификатор : 2
Формат : AC-3
Формат/Информация : Audio Coding 3
Расширение режима : CM (complete main)
Параметр Endianness формата : Big
Идентификатор кодека : A_AC3
Продолжительность : 2 ч. 7 м.
Вид битрейта : Постоянный
Битрейт : 384 Кбит/сек
Каналы : 6 каналов
Расположение каналов : Front: L C R, Side: L R, LFE
Частота : 48,0 КГц
Частота кадров : 31,250 кадров/сек (1536 spf)
Метод сжатия : С потерями
Размер потока : 351 Мбайт (7%)
Заголовок : Russian iTunes@DD5.1 AC3 ,384 Kbps, 48.0 KHz, 6 ch
Язык : Russian
Default : Нет
Forced : Нет
-- -- -- -- --Релиз от: Nikolai.Baranov & PIRATIYA -- -- -- --
[Profile]  [PM] 
Display posts:    
Reply to topic

Current time is: 19-Apr 10:40

All times are UTC + 2



You cannot post new topics in this forum
You cannot reply to topics in this forum
You cannot edit your posts in this forum
You cannot delete your posts in this forum
You cannot vote in polls in this forum
You cannot attach files in this forum
You cannot download files in this forum