Землетрясение / Strong Earthquake ( Сарик Андреасян) [2016, Драма, фильм-катастрофа , WEB-DL 1080p] [DD5.1]

Reply to topic
 
Author
Message

Враг Нароода ®

Gender: Unknown

Longevity: 4 years 9 months

Posts: 328

Reputation: 1 [+] [-]

Враг Нароода · Post 21-Dec-2016 15:26

[Quote] 

--Землетрясение / Strong Earthquake-- --Год выпуска: 2016
Выпущено: Россия , Армения ,Марс Медиа Энтертейнмент
Жанр:Драма, фильм-катастрофа
Продолжительность: 01:40:03
Озвучка : -Русский
Субтитры: НЕТ
--IMDB --Режиссер:
Сарик Андреасян--В ролях: Константин Лавроненко, Мария Миронова мл., Виктор Степанян, Татев Овакимян, Михаил Погосян, Грант Тохатян, Даниил Изотов, Микаэль Джанибекян, Сос Джанибекян, Арсен Григорян
-- 7 декабря 1988 года в Армении произошло землетрясение, охватившее почти половину территории республики. Были разрушены города Спитак, Ленинакан, Кировакан, Степанаван и ещё более 300 населённых пунктов. 25 тысяч человек погибли, 19 тысяч стали инвалидами, больше полумиллиона остались без крыши над головой.
На фоне природной катастрофы разворачивается история двух героев — 45-летнего Константина Бережного и 20-летнего Роберта Мелконяна. Судьба сталкивает их не впервые — много лет назад в автокатастрофе по вине Бережного погибли родители Роберта. Константин провел несколько лет в тюрьме, а маленького Роберта приютили родственники. По странному стечению обстоятельств Бережной возвращается к своей семье в день страшного землетрясения: его ждут жена, дочь, сын… и Роберт, который так и не простил ему гибели своих родителей. По иронии судьбы, герои оказываются в одном спасательном отряде, но узнают друг друга не сразу.
-- --Качество: WEB-DL 1080p
Формат: MKV
Видео кодек: H264
Видео: 7347Кбит/сек,1920х1080(16.9),в 25.047кадр/сек,AVC(High@L4)(CABAC/2 Ref Frames)
Аудио Кодек: AC3
Аудио #: AC3 , 384 Kbps, 48.0 KHz, 6 ch-Русский--

MediaInfo

Общее
Уникальный идентификатор : 216647281129455452731062910960205977828 (0xA2FCBFA4E322F46B9D13507BB79A58E4)
Полное имя : C:\ПИРАТИЯ(PIRATIYA)\ЗЕМЛЕТРЯСЕНИЕ(Strong Earthquake)\Strong_Earthquake_2016_Russia_Armenia_DD5.1_N.B_WEB-DL_1080p\Strong_Earthquake_2016_Russia_Armenia_DD5.1_N.B_WEB-DL_1080p.mkv
Формат : Matroska
Версия формата : Version 4 / Version 2
Размер файла : 5,46 Гбайт
Продолжительность : 1 ч. 41 м.
Режим общего битрейта : Переменный
Общий поток : 7734 Кбит/сек
Название фильма : Strong_Earthquake_2016_Russia_Armenia_DD5.1_N.B_WEB-DL_1080p
Дата кодирования : UTC 2016-12-21 06:22:16
Программа кодирования : mkvmerge v9.6.0 ('Slave To Your Mind') 64bit
Библиотека кодирования : libebml v1.3.4 + libmatroska v1.4.5
Видео
Идентификатор : 1
Формат : AVC
Формат/Информация : Advanced Video Codec
Профиль формата : High@L4
Параметр CABAC формата : Да
Параметр ReFrames формата : 2 кадра
Параметр GOP формата : M=2, N=15
Идентификатор кодека : V_MPEG4/ISO/AVC
Продолжительность : 1 ч. 41 м.
Вид битрейта : Переменный
Битрейт : 7347 Кбит/сек
Максимальный битрейт : 16,0 Мбит/сек
Ширина : 1920 пикселей
Высота : 1080 пикселей
Соотношение сторон : 16:9
Режим частоты кадров : Переменный
Частота кадров : 25,047 кадров/сек
Частота кадров в оригинале : 29,970 (30000/1001) кадров/сек
Цветовое пространство : YUV
Субдискретизация насыщенности : 4:2:0
Битовая глубина : 8 бит
Тип развёртки : Прогрессивная
Бит/(Пиксели*Кадры) : 0.141
Размер потока : 5,19 Гбайт (95%)
Заголовок : Strong_Earthquake_2016_Russia_Armenia_DD5.1_N.B_WEB-DL_1080p
Язык : Russian
Default : Нет
Forced : Нет
Аудио
Идентификатор : 2
Формат : AC-3
Формат/Информация : Audio Coding 3
Расширение режима : CM (complete main)
Параметр Endianness формата : Big
Идентификатор кодека : A_AC3
Продолжительность : 1 ч. 41 м.
Вид битрейта : Постоянный
Битрейт : 384 Кбит/сек
Каналы : 6 каналов
Расположение каналов : Front: L C R, Side: L R, LFE
Частота : 48,0 КГц
Частота кадров : 31,250 кадров/сек (1536 spf)
Битовая глубина : 16 бит
Метод сжатия : С потерями
Размер потока : 278 Мбайт (5%)
Заголовок : Russia_Armenia
Язык : Russian
Default : Нет
Forced : Нет
Меню
00:00:00.000 : en:Глава 01 / en:Глава 01
--

Скриншоты

[
-- -- -- --Релиз от: Nikolai.Baranov & PIRATIYA -- -- -- --
[Profile]  [PM] 
Display posts:    
Reply to topic

Current time is: 26-Jun 17:57

All times are UTC + 2



You cannot post new topics in this forum
You cannot reply to topics in this forum
You cannot edit your posts in this forum
You cannot delete your posts in this forum
You cannot vote in polls in this forum
You cannot attach files in this forum
You cannot download files in this forum