Телемост Москва-Иерусалим (серии 1-47 из 47) (Семён Винокур) [2006-2011, телемост, WEB-DL Rip 720p]

Reply to topic
 
Author
Message

krasyarBB ®

Gender: Unknown

Longevity: 8 years 8 months

Posts: 32

Reputation: 0 [+] [-]

krasyarBB · Post 09-May-2013 16:24

[Quote] 

Телемост Москва-Иерусалим / серии 1-47 из 47 -Год выпуска: 2006-2011
Страна: Россия, Израиль
Производство: Ari Films
Жанр: телемост
Продолжительность: 34:17:15
Перевод: оригинал (русский язык)
Субтитры: нет-В ролях: Михаэль Лайтман, Александр Политковский, Андрей Фурсов, Владимир Жириновский, Игорь Панарин, Ирина Винер, Михаил Делягин, Михаил Хазин и другие.
Режиссёр: Семён Винокур-Описание: Общественные деятели и люди искусства беседуют о смысле жизни.-Качество: WEB-DL Rip 720p
Формат: MP4
Видео кодек: MPEG-4 AVC (H.264)
Аудио кодек: AAC
Видео: 1280 x 720, 25,000 fps, ~ 1150 Kbps, ~ 0.050 bit/pixel
Аудио: 44,1 kHz, 2 (L,R) ch, ~ 150 kb/s
СЭМПЛ-Аудиоверсия Телемост Москва-Иерусалим / выпуски 1-47 из 47
-

Скриншоты

Расскадровка

MediaInfo

Общее
Полное имя : Telemost_Moskva_Ierusalim\2006-10-17_Телемост М.Лайтман - Александр Марков.mp4
Формат : MPEG-4
Профиль формата : Base Media / Version 2
Идентификатор кодека : mp42
Размер файла : 660 Мбайт
Продолжительность : 1 ч. 19 м.
Режим общего битрейта : Переменный
Общий поток : 1158 Кбит/сек
Дата кодирования : UTC 2012-06-28 05:50:25
Дата пометки : UTC 2012-06-28 05:50:25
gsst : 0
gstd : 4778271
gssd : B4A7DDAC3MH1341200867812255
gshh : o-o.preferred.fra07t11.v3.cache7.c.youtube.com
Видео
Идентификатор : 1
Формат : AVC
Формат/Информация : Advanced Video Codec
Профиль формата : High@L3.1
Параметр CABAC формата : Да
Параметр ReFrames формата : 1 кадр
Идентификатор кодека : avc1
Идентификатор кодека/Информация : Advanced Video Coding
Продолжительность : 1 ч. 19 м.
Битрейт : 1056 Кбит/сек
Максимальный битрейт : 2491 Кбит/сек
Ширина : 1280 пикселей
Высота : 720 пикселей
Соотношение сторон : 16:9
Режим частоты кадров : Постоянный
Частота кадров : 25,000 кадров/сек
Цветовое пространство : YUV
Субдискретизация насыщенности : 4:2:0
Битовая глубина : 8 бит
Тип развёртки : Прогрессивная
Бит/(Пиксели*Кадры) : 0.046
Размер потока : 601 Мбайт (91%)
Дата пометки : UTC 2012-06-28 05:50:27
Аудио
Идентификатор : 2
Формат : AAC
Формат/Информация : Advanced Audio Codec
Профиль формата : LC
Идентификатор кодека : 40
Продолжительность : 1 ч. 19 м.
Вид битрейта : Переменный
Битрейт : 99,8 Кбит/сек
Максимальный битрейт : 166 Кбит/сек
Каналы : 2 канала
Расположение каналов : Front: L R
Частота : 44,1 КГц
Метод сжатия : С потерями
Размер потока : 56,9 Мбайт (9%)
Заголовок : IsoMedia File Produced by Google, 5-11-2011
Дата кодирования : UTC 2012-06-28 05:50:26
Дата пометки : UTC 2012-06-28 05:50:27

Список серий

01. 2006-10-17_Телемост М.Лайтман - Александр Марков (79:38)
02. 2007-01-05_Телемост М.Лайтман - Михаил Козаков (60:00)
03. 2007-01-25_Телемост М.Лайтман - Юлия Рутберг (43:14)
04. 2007-02-28_Телемост М.Лайтман - Владимир Мирзоев-1 (29:17)
05. 2007-02-28_Телемост М.Лайтман - Владимир Мирзоев-2 (47:09)
06. 2007-02-28_Телемост М.Лайтман - Владимир Мирзоев-3 (40:42)
07. 2007-07-03_Телемост М.Лайтман - Юрий Куклачёв-1 (28:46)
08. 2007-07-03_Телемост М.Лайтман - Юрий Куклачёв-2 (39:45)
09. 2007-08-08_Телемост М.Лайтман - Марк Рудинштейн (53:23)
10. 2007-09-09_Телемост М.Лайтман - Ксения Стриж-1 (32:09)
11. 2007-09-09_Телемост М.Лайтман - Ксения Стриж-2 (40:00)
12. 2007-11-07_Телемост М.Лайтман - Ирина Винер-1 (32:06)
13. 2007-11-07_Телемост М.Лайтман - Ирина Винер-2 (43:15)
14. 2007-11-08_Телемост М.Лайтман - Валерий Тодоровский-1 (31:25)
15. 2007-11-08_Телемост М.Лайтман - Валерий Тодоровский-2 (39:47)
16. 2007-11-22_Телемост М.Лайтман - Александр Никонов-1 (33:38)
17. 2007-11-22_Телемост М.Лайтман - Александр Никонов-2 (33:37)
18. 2007-11-28_Телемост М.Лайтман - Чингиз Айтматов (30:53)
19. 2007-12-03_Телемост М.Лайтман - Сергей Лесков-1 (35:20)
20. 2007-12-03_Телемост М.Лайтман - Сергей Лесков-2 (28:51)
21. 2007-12-21_Телемост М.Лайтман - Марк Дейч (54:09)
22. 2008-01-31_Телемост М.Лайтман - Генри Резник (54:24)
23. 2008-02-26_Телемост М.Лайтман - Вячеслав Спесивцев-1 (26:15)
24. 2008-02-26_Телемост М.Лайтман - Вячеслав Спесивцев-2 (35:33)
25. 2008-02-27_Телемост М.Лайтман - Александр Политковский-1 (35:35)
26. 2008-02-27_Телемост М.Лайтман - Александр Политковский-2 (30:30)
27. 2008-03-03_Телемост М.Лайтман - Ольга Гарина (59:52)
28. 2008-03-12_Телемост М.Лайтман - Анатолий Вассерман (64:22)
29. 2008-07-09_Телемост М.Лайтман - Алексей Табачников (69:38)
30. 2008-07-16_Телемост М.Лайтман - Анна Сёмина (Юта) (48:12)
31. 2008-07-22_Телемост М.Лайтман - Александр Иванов (54:58)
32. 2008-07-29_Телемост М.Лайтман - Армен Григорян (58:48)
33. 2008-08-06_Телемост М.Лайтман - Алексей Поддубный (Джанго) (49:20)
34. 2008-10-16_Телемост М.Лайтман - Рок-группа Ундервуд (51:56)
35. 2008-11-27_Телемост М.Лайтман - Анатолий Ульянов-1 (49:05)
36. 2008-11-27_Телемост М.Лайтман - Анатолий Ульянов-2 (31:25)
37. 2008-12-29_Телемост М.Лайтман - Михаил Хазин (63:37)
38. 2009-04-01_Телемост М.Лайтман - Владимир Жириновский (25:45)
39. 2009-06-09_Телемост М.Лайтман - Леонид Радзиховский (47:24)
40. 2009-07-02_Телемост М.Лайтман - Михаил Хазин (64:32)
41. 2009-07-30_Телемост М.Лайтман - Игорь Панарин (25:45)
42. 2009-08-12_Телемост М.Лайтман - Михаил Делягин (47:57)
43. 2009-09-09_Телемост М.Лайтман - Андрей Фурсов (25:45)
44. 2009-09-16_Телемост М.Лайтман - Андрей Кобяков (52:51)
45. 2009-10-18_Телемост М.Лайтман - Игорь Харичев-1 (41:44)
46. 2009-10-18_Телемост М.Лайтман - Игорь Харичев-2 (34:22)
47. 2011-05-29_Телемост М.Лайтман - Александр Проханов (50:29)
[Profile]  [PM] 
Display posts:    
Reply to topic

Current time is: 02-Dec 21:34

All times are UTC + 2



You cannot post new topics in this forum
You cannot reply to topics in this forum
You cannot edit your posts in this forum
You cannot delete your posts in this forum
You cannot vote in polls in this forum
You cannot attach files in this forum
You cannot download files in this forum