Чёрные паруса / Black Sails (Сезон 1-2, Серии 1-18 из 18) (Нил Маршалл, Сэм Миллер, Т.Дж. Скотт) [2014-2015, Драма, приключения, BDRip, HDTVRip] [DD5.1] [MVO] [AlexFilm+ Subs Rus, ENG]

Reply to topic
 
Author
Message

Враг Нароода ®

Gender: Unknown

Longevity: 7 years

Posts: 495

Reputation: 1 [+] [-]

Враг Нароода · Post 25-Feb-2015 06:16

[Quote] 

-- --Чёрные паруса / Black Sails Сезон 1-2, Серии 1-18 из 18-- -- --Год выпуска: 2014-2015
Выпущено:США, ЮАР, Film Afrika Worldwide CC, Platinum Dunes
Жанр: Драма, приключения
Продолжительность: 01:04:47
Сезон: 1-2
Серия: 1-18
Количество серий в сезоне: 18
Перевод: Ольга Галайда
Монтаж и сведение звука: Михаил Шорыгин
Озвучка:Профессиональная многоголосая закадровая(AlexFilm)Евгения Тихонова,Александр Воронов,Константин Погодаев,Михаил Суслов,Владимир Курдов,Владислав Даниловч
Субтитры: Русские, английские--Сайт сериала:
--Режиссер: Нил Маршалл, Сэм Миллер, Т.Дж. Скотт--В ролях: Тоби Стивенс, Ханна Нью, Люк Арнольд, Зэк Макгоун, Тоби Шмитц, Клара Пэджет, Марк Райан, Хаким Кае-Казим, Дилан Скьюс, Шон Майкл, Джессика Паркер Кеннеди, Том Хоппер-- 1715 год. Золотой век — вершина пиратства в Карибском море. Остров бывшей британской колонии Нью-Провиденс является территорией беззакония, контролируемый самыми известными пиратскими капитанами в истории. Самым грозным из них является капитан Флинт.Но британский флот возвращается в эти воды, угрожая уничтожить Флинта и его команду. Движимый глубокими, сложными, даже романтическими мотивами, Флинт становится союзником с грозной Элеонорой Гатри, дочерью местного вора в законе, который превращает добычу пиратов в прибыль. Вместе они создают план, охотясь за высшей наградой, выиграв которую, они остановят захват своего дома и обеспечат их выживание.Им противостоит ряд соперников: конкурент капитана, завидующий власти Флинта, отец Элеоноры, чьи амбиции на острове приводят к конфликту с дочерью, и молодой моряк, Джон Сильвер, недавно принятый в экипаж Флинта, которому каким-то образом удается постоянно срывать планы своего капитана.-- --Качество : 1Сезон :BDRip ,2Сезон :HDTVRip
Формат: AVI
Видео кодек: DivX5
Видео: 2265Кбит/сек,720х406(16.9),в 23.976кадр/сек,MPEG4 Visual(DivX5)
Аудио кодек: AC3
Аудио Dolby Digital 5.1: Русский (AC3, 6 ch,640 Кбит/с,48KHz), Aнглийский (AC3, 6 ch, 640 Кбит/с,48KHz)--

Доп. информация:

Звуковая дорожка сделана путем наложения чистого голоса озвучивателей на центральный канал оригинальной дорожки. Качество идентично звуковой дорожке.
--

Список эпизодов сезонов

1СЕЗОН
Эпизод 1
Эпизод 2
Эпизод 3
Эпизод 4
Эпизод 5
Эпизод 6
Эпизод 7
Эпизод 8

2СЕЗОН
Эпизод 1
Эпизод 2
Эпизод 3
Эпизод 4
Эпизод 5
Эпизод 6
Эпизод 7
Эпизод 8
Эпизод 9
Эпизод 10
--

MediaInfo 1СЕЗОНА

General
Полное имя : D:\ЧЁРНЫЕ ПАРУСА\BLASK_SAILS_S01_-_S02_RUS_ENG_[AlexFilm]_[AVI_DivX5_DD5.1]_Nikolai.Baranov_BDRip_HDTVRip\S01\BLASK_SAILS_2014_S01E01_RUS_ENG_[AlexFilm]_[AVI_DivX5_DD5.1]_Nikolai.Baranov_BDRip.divx
Формат : DivX
Формат/Информация : Hack of AVI
Размер файла : 1.62 GiB
Продолжительность : 1h 5mn
Общий поток : 3 561 Kbps
Video
Идентификатор : 0
Формат : MPEG-4 Visual
Параметр BVOP формата : 1
Параметр QPel формата : No
Параметр GMC формата : No warppoints
Параметр матрицы формата : Default (H.263)
Режим смешивания : Packed bitstream
Идентификатор кодека : DX50
Идентификатор кодека/Подсказка : DivX 5
Продолжительность : 1h 5mn
Битрейт : 2 265 Kbps
Ширина : 720 pixels
Высота : 406 pixels
Соотношение сторон : 16:9
Частота кадров : 23.976 fps
Цветовое пространство : YUV
Субдискретизация насыщенности : 4:2:0
Битовая глубина : 8 bits
Тип развёртки : Progressive
Метод сжатия : Lossy
Бит/(Пиксели*Кадры) : 0.323
Размер потока : 1.03 GiB (64%)
Заголовок : Video
Библиотека кодирования : DivX 2682
Audio #1
Идентификатор : 1
Формат : AC-3
Формат/Информация : Audio Coding 3
Расширение режима : CM (complete main)
Параметр Endianness формата : Big
Идентификатор кодека : 2000
Продолжительность : 1h 5mn
Вид битрейта : Constant
Битрейт : 640 Kbps
Каналы : 6 channels
Расположение каналов : Front: L C R, Side: L R, LFE
Частота : 48.0 KHz
Битовая глубина : 16 bits
Метод сжатия : Lossy
Размер потока : 298 MiB (18%)
Выравнивание : Split accross interleaves
Продолжительность промежутка : 42 ms (1.00 video frame)
Время предзагрузки промежутка : 500 ms
Заголовок : Audio - en-US01
Audio #2
Идентификатор : 2
Формат : AC-3
Формат/Информация : Audio Coding 3
Расширение режима : CM (complete main)
Параметр Endianness формата : Big
Идентификатор кодека : 2000
Продолжительность : 1h 5mn
Вид битрейта : Constant
Битрейт : 640 Kbps
Каналы : 6 channels
Расположение каналов : Front: L C R, Side: L R, LFE
Частота : 48.0 KHz
Битовая глубина : 16 bits
Метод сжатия : Lossy
Размер потока : 298 MiB (18%)
Выравнивание : Split accross interleaves
Продолжительность промежутка : 42 ms (1.00 video frame)
Время предзагрузки промежутка : 500 ms
Заголовок : Audio - en-US01
Text
Идентификатор : 3
Формат : DivX Subtitle
Идентификатор кодека : DXSB
Идентификатор кодека/Информация : Subtitle in AVI from DivX networks
Ширина : 640 characters
Высота : 480 characters
Битовая глубина : 2 bits
Размер потока : 809 KiB (0%)
Заголовок : Subtitle
--

MediaInfo 2СЕЗОНА

eneral
Полное имя : D:\ЧЁРНЫЕ ПАРУСА\BLASK_SAILS_S01_-_S02_RUS_ENG_[AlexFilm]_[AVI_DivX5_DD5.1]_Nikolai.Baranov_BDRip_HDTVRip\S02\BLASK_SAILS_2015_S02E01_RUS_ENG_[AlexFilm]_[AVI_DivX5_DD5.1]_Nikolai.Baranov_HDTVRip.divx
Формат : AVI
Формат/Информация : Audio Video Interleave
Размер файла : 1.31 GiB
Продолжительность : 52mn 19s
Общий поток : 3 596 Kbps
Video
Идентификатор : 0
Формат : MPEG-4 Visual
Параметр BVOP формата : 1
Параметр QPel формата : No
Параметр GMC формата : No warppoints
Параметр матрицы формата : Default (H.263)
Режим смешивания : Packed bitstream
Идентификатор кодека : DX50
Идентификатор кодека/Подсказка : DivX 5
Продолжительность : 52mn 19s
Битрейт : 2 302 Kbps
Ширина : 720 pixels
Высота : 406 pixels
Соотношение сторон : 16:9
Частота кадров : 23.976 fps
Цветовое пространство : YUV
Субдискретизация насыщенности : 4:2:0
Битовая глубина : 8 bits
Тип развёртки : Progressive
Метод сжатия : Lossy
Бит/(Пиксели*Кадры) : 0.328
Размер потока : 862 MiB (64%)
Заголовок : Video
Библиотека кодирования : DivX 2682
Audio #1
Идентификатор : 1
Формат : AC-3
Формат/Информация : Audio Coding 3
Расширение режима : CM (complete main)
Параметр Endianness формата : Big
Идентификатор кодека : 2000
Продолжительность : 52mn 19s
Вид битрейта : Constant
Битрейт : 640 Kbps
Каналы : 6 channels
Расположение каналов : Front: L C R, Side: L R, LFE
Частота : 48.0 KHz
Битовая глубина : 16 bits
Метод сжатия : Lossy
Размер потока : 240 MiB (18%)
Выравнивание : Split accross interleaves
Продолжительность промежутка : 42 ms (1.00 video frame)
Время предзагрузки промежутка : 500 ms
Заголовок : Audio - en-US01
Audio #2
Идентификатор : 2
Формат : AC-3
Формат/Информация : Audio Coding 3
Расширение режима : CM (complete main)
Параметр Endianness формата : Big
Идентификатор кодека : 2000
Продолжительность : 52mn 19s
Вид битрейта : Constant
Битрейт : 640 Kbps
Каналы : 6 channels
Расположение каналов : Front: L C R, Side: L R, LFE
Частота : 48.0 KHz
Битовая глубина : 16 bits
Метод сжатия : Lossy
Размер потока : 240 MiB (18%)
Выравнивание : Split accross interleaves
Продолжительность промежутка : 42 ms (1.00 video frame)
Время предзагрузки промежутка : 500 ms
Заголовок : Audio - en-US01
--

Скриншоты 1СЕЗОНА

--

Скриншоты 2СЕЗОНА

--
1СЕЗОН
-
2СЕЗОН
--

Как закачать отдельный файл

1. Открыть торрент
2. Снять галки с тех файлов торрента, которые мы не хотим закачивать. Оставляем только на нужных нам файлах (файле).
3. Нажать О.К.
В клиенте utorrent
Инструкция
1) Открыть торрент

2) Снять галки с тех файлов торрента, которые мы не хотим закачивать:
* либо вручную, снимая с каждого файла галку( скрин №1)
* либо, нажав кнопку "Снять метки (Select None)", сняв сразу со всех файлов(скрин №2)
№1

№2

Оставляем только на нужных нам файлах (файле).

3)Нажать О.К
-- -- -- --Внимание!!! 01.04. 2015. РАЗДАЧА ОБНОВЛЕНА .ФИНАЛ СЕЗОНА.ОБНОВИТЕ ТОРЕНТ ФАЙЛ.ПРИЯТНОГО ПРОСМОТРА . --Релиз от: Nikolai.Baranov -- -- -- --
[Profile]  [PM] 
Display posts:    
Reply to topic

Current time is: 20-Sep 12:35

All times are UTC + 2



You cannot post new topics in this forum
You cannot reply to topics in this forum
You cannot edit your posts in this forum
You cannot delete your posts in this forum
You cannot vote in polls in this forum
You cannot attach files in this forum
You cannot download files in this forum