Чёрные паруса / Black Sails (Сезон 3, Серии 1-10 из 10) (Нил Маршалл, Сэм Миллер, Т.Дж. Скотт) [2016, Драма, приключения, HDTVRip 1080p] [DD5.1] [MVO] [Amedia , LostFilm + Subs Rus,ENG]

Reply to topic
 
Author
Message

Враг Нароода ®

Gender: Unknown

Longevity: 5 years 7 months

Posts: 404

Reputation: 1 [+] [-]

Враг Нароода · Post 11-Feb-2016 17:25

[Quote] 

-- --Чёрные паруса / Black Sails Сезон 3, Серии 1-10 из 10-- -- --Год выпуска: 2016
Выпущено:США, ЮАР, Film Afrika Worldwide CC, Platinum Dunes
Жанр: Драма, приключения
Продолжительность: 00:57:30
Сезон: 3
Серия: 1-10
Количество серий в сезоне: 10
Озвучка 1 :Многоголосое профессиональное закадровое озвучание - Amedia
Озвучка 2:Многоголосое профессиональное закадровое озвучание - LostFilm
Озвучка 3: Профессиональный многоголосый - Английский - Оригинал
Субтитры: Русские , Английские --Сайт сериала:
--Режиссер: Нил Маршалл, Сэм Миллер, Т.Дж. Скотт--В ролях: Тоби Стивенс, Ханна Нью, Люк Арнольд, Зэк Макгоун, Тоби Шмитц, Клара Пэджет, Марк Райан, Хаким Кае-Казим, Дилан Скьюс, Шон Майкл и др.-- 1715 год. Золотой век — вершина пиратства в Карибском море. Остров бывшей британской колонии Нью-Провиденс является территорией беззакония, контролируемый самыми известными пиратскими капитанами в истории. Самым грозным из них является капитан Флинт.Но британский флот возвращается в эти воды, угрожая уничтожить Флинта и его команду. Движимый глубокими, сложными, даже романтическими мотивами, Флинт становится союзником с грозной Элеонорой Гатри, дочерью местного вора в законе, который превращает добычу пиратов в прибыль. Вместе они создают план, охотясь за высшей наградой, выиграв которую, они остановят захват своего дома и обеспечат их выживание.Им противостоит ряд соперников: конкурент капитана, завидующий власти Флинта, отец Элеоноры, чьи амбиции на острове приводят к конфликту с дочерью, и молодой моряк, Джон Сильвер, недавно принятый в экипаж Флинта, которому каким-то образом удается постоянно срывать планы своего капитана.-- --Качество : HDTVRip 1080p
Формат: MKV
Видео кодек: H264
Видео: 5000Кбит/сек,1920х1080(16.9),в 25.000кадр/сек,AVC(High@L4.1)(CABAC/4 Ref Frames)
Аудио Кодек:AC3
Аудио #1:AC3 , 384 Kbps, 48.0 KHz, 6 ch- - Amedia -Русский
Аудио #2: AC3, 384 Kbps, 48.0 KHz, 6 ch - - LostFilm -Русский
Аудио #3: AC3,384 Kbps, 48.0 KHz,6 ch - - English-Английский - Оригинал--

Доп. информация:

Звуковая дорожка сделана путем наложения чистого голоса озвучивателей на центральный канал оригинальной дорожки. Качество идентично звуковой дорожке.
--

Список эпизодов сезона

Эпизод 1
Эпизод 2
Эпизод 3
Эпизод 4
Эпизод 5
Эпизод 6
Эпизод 7
Эпизод 8
Эпизод 9
Эпизод 10
--

MediaInfo

Общее
Уникальный идентификатор : 228851187329910796373571833764056689354 (0xAC2B22ACC4834C688D08705DAD606ACA)
Полное имя : E:\К ИНО\ЧЁРНЫЕ ПАРУСА\Black_Sails_2016_S03_[Amedia_LostFilm]_Н264_DD5.1_N.B_HDTV_1080p_2хRus_Eng\Black_Sails_2016_S03Е01_[Amedia_LostFilm]_N.B_HDTV_1080p_2хRus_Eng.mkv
Формат : Matroska
Версия формата : Version 4 / Version 2
Размер файла : 2,47 Гбайт
Продолжительность : 57 м.
Общий поток : 6146 Кбит/сек
Название фильма : Black_Sails_2016_S03Е01_[Amedia_LostFilm]_N.B_HDTV_1080p_2ХRus_Eng
Дата кодирования : UTC 2016-02-10 12:19:28
Программа кодирования : mkvmerge v8.8.0 ('Wind at my back') 64bit
Библиотека кодирования : libebml v1.3.3 + libmatroska v1.4.4
Видео
Идентификатор : 1
Формат : AVC
Формат/Информация : Advanced Video Codec
Профиль формата : High@L4.1
Параметр CABAC формата : Да
Параметр ReFrames формата : 4 кадра
Идентификатор кодека : V_MPEG4/ISO/AVC
Продолжительность : 57 м.
Битрейт : 5000 Кбит/сек
Ширина : 1920 пикселей
Высота : 1080 пикселей
Соотношение сторон : 16:9
Режим частоты кадров : Постоянный
Частота кадров : 25,000 кадров/сек
Цветовое пространство : YUV
Субдискретизация насыщенности : 4:2:0
Битовая глубина : 8 бит
Тип развёртки : Прогрессивная
Бит/(Пиксели*Кадры) : 0.096
Размер потока : 2,00 Гбайт (81%)
Библиотека кодирования : x264 core 142 r2491 24e4fed
Настройки программы : cabac=1 / ref=3 / deblock=1:1:-1 / analyse=0x3:0x133 / me=umh / subme=9 / psy=1 / psy_rd=1.00:0.00 / mixed_ref=1 / me_range=48 / chroma_me=1 / trellis=2 / 8x8dct=1 / cqm=0 / deadzone=21,11 / fast_pskip=0 / chroma_qp_offset=-2 / threads=36 / lookahead_threads=4 / sliced_threads=0 / slices=4 / nr=0 / decimate=1 / interlaced=0 / bluray_compat=0 / constrained_intra=0 / bframes=6 / b_pyramid=2 / b_adapt=2 / b_bias=0 / direct=3 / weightb=1 / open_gop=0 / weightp=2 / keyint=250 / keyint_min=22 / scenecut=40 / intra_refresh=0 / rc_lookahead=50 / rc=2pass / mbtree=1 / bitrate=5000 / ratetol=1.0 / qcomp=0.70 / qpmin=10 / qpmax=49 / qpstep=4 / cplxblur=20.0 / qblur=0.5 / vbv_maxrate=9000 / vbv_bufsize=2500 / nal_hrd=none / filler=0 / ip_ratio=1.40 / aq=1:1.00
Язык : Russian
Default : Да
Forced : Нет
Аудио #1
Идентификатор : 4
Формат : AC-3
Формат/Информация : Audio Coding 3
Расширение режима : CM (complete main)
Параметр Endianness формата : Big
Идентификатор кодека : A_AC3
Продолжительность : 57 м.
Вид битрейта : Постоянный
Битрейт : 384 Кбит/сек
Каналы : 6 каналов
Расположение каналов : Front: L C R, Side: L R, LFE
Частота : 48,0 КГц
Частота кадров : 31,250 кадров/сек (1536 spf)
Метод сжатия : С потерями
Размер потока : 158 Мбайт (6%)
Default : Да
Forced : Нет
Аудио #2
Идентификатор : 5
Формат : AC-3
Формат/Информация : Audio Coding 3
Расширение режима : CM (complete main)
Параметр Endianness формата : Big
Идентификатор кодека : A_AC3
Продолжительность : 57 м.
Вид битрейта : Постоянный
Битрейт : 384 Кбит/сек
Каналы : 6 каналов
Расположение каналов : Front: L C R, Side: L R, LFE
Частота : 48,0 КГц
Частота кадров : 31,250 кадров/сек (1536 spf)
Метод сжатия : С потерями
Размер потока : 158 Мбайт (6%)
Default : Нет
Forced : Нет
Аудио #3
Идентификатор : 6
Формат : AC-3
Формат/Информация : Audio Coding 3
Расширение режима : CM (complete main)
Параметр Endianness формата : Big
Идентификатор кодека : A_AC3
Продолжительность : 57 м.
Вид битрейта : Постоянный
Битрейт : 384 Кбит/сек
Каналы : 6 каналов
Расположение каналов : Front: L C R, Side: L R, LFE
Частота : 48,0 КГц
Частота кадров : 31,250 кадров/сек (1536 spf)
Метод сжатия : С потерями
Размер потока : 158 Мбайт (6%)
Default : Нет
Forced : Нет
Текст #1
Идентификатор : 2
Формат : UTF-8
Идентификатор кодека : S_TEXT/UTF8
Идентификатор кодека/Информация : UTF-8 Plain Text
Продолжительность : 56 м.
Битрейт : 92 бит/сек
Count of elements : 707
Размер потока : 38,0 Кбайт (0%)
Язык : Russian
Default : Нет
Forced : Нет
Текст #2
Идентификатор : 3
Формат : UTF-8
Идентификатор кодека : S_TEXT/UTF8
Идентификатор кодека/Информация : UTF-8 Plain Text
Продолжительность : 56 м.
Битрейт : 67 бит/сек
Count of elements : 747
Размер потока : 27,7 Кбайт (0%)
Язык : English
Default : Нет
Forced : Нет
--

Скриншоты

-- --

Как закачать отдельный файл

1. Открыть торрент
2. Снять галки с тех файлов торрента, которые мы не хотим закачивать. Оставляем только на нужных нам файлах (файле).
3. Нажать О.К.
В клиенте utorrent
Инструкция
1) Открыть торрент

2) Снять галки с тех файлов торрента, которые мы не хотим закачивать:
* либо вручную, снимая с каждого файла галку( скрин №1)
* либо, нажав кнопку "Снять метки (Select None)", сняв сразу со всех файлов(скрин №2)
№1

№2

Оставляем только на нужных нам файлах (файле).

3)Нажать О.К
-- -- --Внимание!!! 30.03. 2016. РАЗДАЧА ОБНОВЛЕНА. ОБНОВИТЕ ТОРЕНТ ФАЙЛ.ПРИЯТНОГО ПРОСМОТРА . ФИНАЛ СЕЗОНА.--Релиз от: Nikolai.Baranov & PIRATIYA -- -- -- --
[Profile]  [PM] 
Display posts:    
Reply to topic

Current time is: 30-Mar 21:43

All times are UTC + 2



You cannot post new topics in this forum
You cannot reply to topics in this forum
You cannot edit your posts in this forum
You cannot delete your posts in this forum
You cannot vote in polls in this forum
You cannot attach files in this forum
You cannot download files in this forum