Табу / Taboo (Сезон 1, Серия 1-8 из 8) (Андерс Энгстрем, Кристоффер Нюхольм ) [2017 , Драма, приключения , HDTVRip 1080p] [ AlexFilm , LostFilm , NewStudio , English] + [Subs Rus , Ukr ,ENG]

Reply to topic
 
Author
Message

Враг Нароода ®

Gender: Unknown

Longevity: 6 years

Posts: 446

Reputation: 1 [+] [-]

Враг Нароода · Post 29-Jan-2017 16:23

[Quote] 

--Табу / Taboo Сезон 1, Серия 1- 8 из 8-- --Год выпуска:2017
Выпущено:США , Великобритания , , ,Hardy, Son & Baker, Scott Free Productions
Жанр: Драма, приключения
Продолжительность: 000:55:00
Сезон:1
Серия: 1 -8
Количество серий в сезоне: 8
Озвучка 1: Профессиональный многоголосый - AlexFilm -Русский
Озвучка 2: Профессиональный многоголосый - LostFilm -Русский
Озвучка 4: Профессиональный многоголосый - Jaskier -Русский
Озвучка 6: Профессиональный многоголосый - Английский - Оригинал
Субтитры: : Russian , Ukrainian , English -- В релизе отсутствует реклама --Официальный сайт
IMDB --Режиссеры: Андерс Энгстрем, Кристоффер Нюхольм --Сценаристы: Стивен Найт, Том Харди, Чипс Харди, Эмили Балу, Бен Херви--В ролях: Том Харди (Джеймс Кезайя Делэйни), Лео Билл (Уилтон), Майкл Келли (Дамбартон), Джонатан Прайс (Стюарт Стрэндж), Уна Чаплин (Зилфа Гири)
-- Британия, 1814 год. Джеймс Кезайя Делэйни вернулся в родной Лондон — город, где его давно считают мертвым. У Джеймса в кармане 14 добытых не самым честным путем бриллиантов, а в душе — желание найти и наказать убийц отца. Все, что Джеймсу осталось от родителя в наследство, — клочок земли да старый верный слуга. И если слуга мало интересует могущественную Британскую Ост-Индскую компанию в лице ее жадной верхушки, то участок земли, который за это время существенно вырос в цене, — очень даже. Влиятельный и коварный сэр Стюарт Стрэндж готов пойти на все, чтобы получить желаемое, вплоть до убийства Делэйни. Но в чем нельзя отказать главному герою сериала, так это в умении выживать. Если его не убила темная магия Африки, десятилетняя разлука с возлюбленной, схватка с медведем и проклятие золота ацтеков, то сэру Стрэнджу придется очень постараться. Недалек тот день, когда алчность сойдется в бою с безумием, но будет ли в этой схватке победитель?..
-- --Качество :HDTVRip 1080p
Формат: MKV
Видео кодек: H264
Видео: 8903Kбит/сек,1920х1080(16.9),в 25.000кадр/сек,AVC(High@L4.1)(CABAC/4 Ref Frames)
Аудио Кодек:AC3
Аудио #1:AC3 , 384 Kbps, 48.0 KHz, 6 ch- AlexFilm -Русский
Аудио #2:AC3 , 384 Kbps, 48.0 KHz, 6 ch- LostFilm -Русский
Аудио #3:AC3 , 384 Kbps, 48.0 KHz, 6 ch-Jaskier-Русский
Аудио #4: AC3, 640 Kbps, 48.0 KHz,6 ch - - English - Оригинал--

Доп. информация:

Звуковая дорожка сделана путем наложения чистого голоса озвучивателей на центральный канал оригинальной дорожки. Качество идентично звуковой дорожке.
--

Список эпизодов сезона


01 1Эпизод 1
02 Эпизод 2
03 Эпизод 3
04 Эпизод 4
05 Эпизод 5
06 Эпизод 6
07 Эпизод 7
08 Эпизод 8
--

MediaInfo

Общее
Уникальный идентификатор : 185575854470244890545366630128978395677 (0x8B9C9C08B684B00A8F8B7A4F21DA821D)
Полное имя : C:\ПИРАТИЯ(PIRATIYA)\HDTV 1080p\Табу (Taboo)\TABO_217_S01_N.B_HDTV_1080p_3xRus[AlexFilm_LostFilm_Jaskier]Eng\Taboo_S01E01_N.B_HDTV_1080p_3xRus_Eng.mkv
Формат : Matroska
Версия формата : Version 4 / Version 2
Размер файла : 4,11 Гбайт
Продолжительность : 55 м. 1 с.
Общий поток : 10,7 Мбит/сек
Название фильма : Taboo_S01E01_N.B_HDTV_1080p_3xRus_Eng
Дата кодирования : UTC 2017-01-28 08:19:25
Программа кодирования : mkvmerge v9.8.0 ('Kuglblids') 64bit
Библиотека кодирования : libebml v1.3.4 + libmatroska v1.4.5
Видео
Идентификатор : 1
Формат : AVC
Формат/Информация : Advanced Video Codec
Профиль формата : High@L4.1
Параметр CABAC формата : Да
Параметр ReFrames формата : 4 кадра
Идентификатор кодека : V_MPEG4/ISO/AVC
Продолжительность : 55 м. 1 с.
Битрейт : 8903 Кбит/сек
Ширина : 1920 пикселей
Высота : 1080 пикселей
Соотношение сторон : 16:9
Режим частоты кадров : Постоянный
Частота кадров : 25,000 кадров/сек
Цветовое пространство : YUV
Субдискретизация насыщенности : 4:2:0
Битовая глубина : 8 бит
Тип развёртки : Прогрессивная
Бит/(Пиксели*Кадры) : 0.172
Размер потока : 3,42 Гбайт (83%)
Заголовок : Taboo_S01E01_N.B_HDTV_1080p_3xRus_Eng
Библиотека кодирования : x264 core 148 r2744 b97ae06
Настройки программы : cabac=1 / ref=4 / deblock=1:0:0 / analyse=0x3:0x113 / me=hex / subme=8 / psy=1 / psy_rd=1.00:0.00 / mixed_ref=1 / me_range=16 / chroma_me=1 / trellis=2 / 8x8dct=1 / cqm=0 / deadzone=21,11 / fast_pskip=1 / chroma_qp_offset=-2 / threads=6 / lookahead_threads=1 / sliced_threads=0 / nr=0 / decimate=1 / interlaced=0 / bluray_compat=0 / constrained_intra=0 / bframes=3 / b_pyramid=2 / b_adapt=1 / b_bias=0 / direct=3 / weightb=1 / open_gop=0 / weightp=2 / keyint=250 / keyint_min=25 / scenecut=40 / intra_refresh=0 / rc_lookahead=50 / rc=crf / mbtree=1 / crf=17.0 / qcomp=0.60 / qpmin=0 / qpmax=69 / qpstep=4 / ip_ratio=1.40 / aq=1:1.00
Язык : Russian
Default : Да
Forced : Нет
Цветовой диапазон : Limited
Основные цвета : BT.709
Характеристики трансфера : BT.709
Коэффициенты матрицы : BT.709
Аудио #1
Идентификатор : 5
Формат : AC-3
Формат/Информация : Audio Coding 3
Расширение режима : CM (complete main)
Параметр Endianness формата : Big
Идентификатор кодека : A_AC3
Продолжительность : 55 м. 1 с.
Вид битрейта : Постоянный
Битрейт : 384 Кбит/сек
Каналы : 6 каналов
Расположение каналов : Front: L C R, Side: L R, LFE
Частота : 48,0 КГц
Частота кадров : 31,250 кадров/сек (1536 spf)
Битовая глубина : 16 бит
Метод сжатия : С потерями
Размер потока : 151 Мбайт (4%)
Заголовок : MVO AlexFilm @DD5.1 AC3, 384 Kbps, 48.0 KHz, 6 ch
Язык : Russian
Default : Да
Forced : Нет
Аудио #2
Идентификатор : 6
Формат : AC-3
Формат/Информация : Audio Coding 3
Расширение режима : CM (complete main)
Параметр Endianness формата : Big
Идентификатор кодека : A_AC3
Продолжительность : 55 м. 1 с.
Вид битрейта : Постоянный
Битрейт : 384 Кбит/сек
Каналы : 6 каналов
Расположение каналов : Front: L C R, Side: L R, LFE
Частота : 48,0 КГц
Частота кадров : 31,250 кадров/сек (1536 spf)
Битовая глубина : 16 бит
Метод сжатия : С потерями
Размер потока : 151 Мбайт (4%)
Заголовок : MVO LostFilm @DD5.1 AC3, 384 Kbps, 48.0 KHz, 6 ch
Язык : Russian
Default : Нет
Forced : Нет
Аудио #3
Идентификатор : 7
Формат : AC-3
Формат/Информация : Audio Coding 3
Расширение режима : CM (complete main)
Параметр Endianness формата : Big
Идентификатор кодека : A_AC3
Продолжительность : 55 м. 1 с.
Вид битрейта : Постоянный
Битрейт : 384 Кбит/сек
Каналы : 6 каналов
Расположение каналов : Front: L C R, Side: L R, LFE
Частота : 48,0 КГц
Частота кадров : 31,250 кадров/сек (1536 spf)
Битовая глубина : 16 бит
Метод сжатия : С потерями
Размер потока : 151 Мбайт (4%)
Заголовок : MVO Jaskier @DD5.1 AC3, 384 Kbps, 48.0 KHz, 6 ch
Язык : Russian
Default : Нет
Forced : Нет
Аудио #4
Идентификатор : 8
Формат : AC-3
Формат/Информация : Audio Coding 3
Расширение режима : CM (complete main)
Параметр Endianness формата : Big
Идентификатор кодека : A_AC3
Продолжительность : 55 м. 1 с.
Вид битрейта : Постоянный
Битрейт : 640 Кбит/сек
Каналы : 6 каналов
Расположение каналов : Front: L C R, Side: L R, LFE
Частота : 48,0 КГц
Частота кадров : 31,250 кадров/сек (1536 spf)
Битовая глубина : 16 бит
Метод сжатия : С потерями
Размер потока : 252 Мбайт (6%)
Заголовок : Original@DD5.1 AC3 ,640 Kbps, 48.0 KHz, 6 ch
Язык : English
Default : Нет
Forced : Нет
Текст #1
Идентификатор : 2
Формат : UTF-8
Идентификатор кодека : S_TEXT/UTF8
Идентификатор кодека/Информация : UTF-8 Plain Text
Продолжительность : 51 м. 38 с.
Битрейт : 95 бит/сек
Count of elements : 560
Размер потока : 36,1 Кбайт (0%)
Заголовок : Rus
Язык : Russian
Default : Да
Forced : Нет
Текст #2
Идентификатор : 3
Формат : UTF-8
Идентификатор кодека : S_TEXT/UTF8
Идентификатор кодека/Информация : UTF-8 Plain Text
Продолжительность : 51 м. 23 с.
Битрейт : 84 бит/сек
Count of elements : 548
Размер потока : 32,0 Кбайт (0%)
Заголовок : Ukr
Язык : Ukrainian
Default : Нет
Forced : Нет
Текст #3
Идентификатор : 4
Формат : UTF-8
Идентификатор кодека : S_TEXT/UTF8
Идентификатор кодека/Информация : UTF-8 Plain Text
Продолжительность : 54 м. 4 с.
Битрейт : 53 бит/сек
Count of elements : 625
Размер потока : 21,3 Кбайт (0%)
Заголовок : Original
Язык : English
Default : Нет
Forced : Нет
Меню
00:00:00.000 : en:Глава 01 / en:Глава 01 / en:Глава 01 / en:Глава 01 / en:Глава 01 / en:Глава 01 / en:Глава 01 / en:Глава 01
--

Скриншоты

-- --

Как закачать отдельный файл

1. Открыть торрент
2. Снять галки с тех файлов торрента, которые мы не хотим закачивать. Оставляем только на нужных нам файлах (файле).
3. Нажать О.К.
В клиенте utorrent
Инструкция
1) Открыть торрент

2) Снять галки с тех файлов торрента, которые мы не хотим закачивать:
* либо вручную, снимая с каждого файла галку( скрин №1)
* либо, нажав кнопку "Снять метки (Select None)", сняв сразу со всех файлов(скрин №2)
№1

№2

Оставляем только на нужных нам файлах (файле).

3)Нажать О.К
-- -- --Внимание!!! 01.03. 2017. РАЗДАЧА ОБНОВЛЕНА. ФИНАЛ СЕЗОНА. ОБНОВИТЕ ТОРЕНТ ФАЙЛ.ПРИЯТНОГО ПРОСМОТРА . --Релиз от: Nikolai.Baranov & PIRATIYA -- -- -- --
[Profile]  [PM] 
Display posts:    
Reply to topic

Current time is: 24-Sep 00:05

All times are UTC + 2



You cannot post new topics in this forum
You cannot reply to topics in this forum
You cannot edit your posts in this forum
You cannot delete your posts in this forum
You cannot vote in polls in this forum
You cannot attach files in this forum
You cannot download files in this forum