В пустыне смерти / Into the Badlands (Сезон 2 , Серия 1-10 из 10) (Дэвид Добкин) [2017 , Боевик, драма, приключения, экранизация , WEB-DLRip 1080p] [LostFilm , АМC , OmskBird , NewStudiо ,BaibaKo , English] + [Subs Rus ,ENG]

Reply to topic
 
Author
Message

Враг Нароода ®

Gender: Unknown

Longevity: 5 years 7 months

Posts: 404

Reputation: 1 [+] [-]

Враг Нароода · Post 03-Apr-2017 19:01

[Quote] 

--В пустыне смерти / Into the Badlands Сезон 2 , Серия 1-10 из 10 -- --Год выпуска: 2017
Выпущено: США , Millar Gough Ink, Double Feature Films, AMC Studios
Жанр: Боевик, драма, приключения, экранизация
Продолжительность: 00:45:00
Сезон:2
Серия:1-10
Количество серий в сезоне: 10
Озвучка1: Профессиональный многоголосый - LostFilm -Русский
Озвучка2: Профессиональный многоголосый - АМC -Русский
Озвучка3: Профессиональный многоголосый - OmskBird -Русский
Озвучка4: Профессиональный многоголосый - NewStudiо -Русский
Озвучка5: Профессиональный многоголосый - BaibaKo -Русский
Озвучка 6: Профессиональный многоголосый - Английский - Оригинал
Субтитры: : Russian , English --MDB --Режиссер:
Дэвид Добкин--Актеры:
Дэниэл Ву, Орла Брэйди, Сара Болджер, Арамис Найт, Эмили Бичем, Оливер Старк, Мадлен Манток, Элли Иоаннидес, Мартон Чокаш, Майкл Сил, Стивен Лэнг, Эллен Холлман, Тересса Лиэн, Джерри Таббс, Хайлен Бойд, Лэнс Хенриксен, Джастин Лебрун-- Приключенческий боевик о двух друзьях. В пустыне смерти, какие испытания предстоит пройти главным героям на пути просвещения. Ради обретения высшей мудрости мастер боевых искусств Санни и его юный напарник решают пройти через неизведанные земли. Они знают, что там их будут встречать враждебно, но ради высшей цели главные герои готовы вынести всё. В основу сюжета сериала был положен китайский роман под названием «Путешествие на Запад». Во время путешествия Санни покажет в полной мере своё мастерство, а его юный друг сможет многому научиться, и владению собственным телом, и контролю над собственным духом.-- --Качество :WEB-DLRip 1080p
Формат: MKV
Видео кодек: H264
Видео: 8010Кбит/сек,1920х1080(16.9), в 23.976кадр/сек,AVC (НТSC) (High@L4)(CABAC/3 Ref Frames)
Аудио Кодек:AC3
Аудио #1:AC3 , 640 Kbps, 48.0 KHz, 6 ch- LostFilm -Русский
Аудио #2:AC3 , 384 Kbps, 48.0 KHz, 6 ch- АМC -Русский
Аудио #3:AC3 , 384 Kbps, 48.0 KHz, 6 ch- OmskBird -Русский
Аудио #4:AC3 , 384 Kbps, 48.0 KHz, 6 ch- NewStudiо -Русский
Аудио #5:AC3 , 384 Kbps, 48.0 KHz, 6 ch- BaibaKo -Русский
Аудио #6: AC3, 640 Kbps, 48.0 KHz,6 ch - - English - Оригинал--

Доп. информация:

Звуковая дорожка сделана путем наложения чистого голоса озвучивателей на центральный канал оригинальной дорожки. Качество идентично звуковой дорожке.
--

Список эпизодов сезона


2 сезон 1 серия Тигр двигает гору - Tiger Pushes Mountain
2 сезон 2 серия Сила орлиного когтя - Force of Eagle's Claw
2 сезон 3 серия Красное Солнце, серебряная Луна - Red Sun, Silver Moon
2 сезон 4 серия Лапа Железной Лисицы - Palm of the Iron Fox
2 сезон 5 серия Обезьяна пробирается сквозь туман - Monkey Leaps Through Mist
2 сезон 6 серия Леопард крадётся по снегу - Leopard Stalks in Snow
2 сезон 7 серия Чёрное сердце, белая гора - Black Heart, White Mountain
2 сезон 8 серия Жало скорпиона - Sting of the Scorpion's Tail
2 сезон 9 серия Соловей больше не поёт - Nightingale Sings No More
2 сезон 10 серия Дыхание волка, пламя дракона - Wolf's Breath, Dragon Fire
--

MediaInfo сезона

Общее
Уникальный идентификатор : 173425947887039550647749305249917627252 (0x82789F63D2DED4C2AA336E801A28EB74)
Полное имя : C:\ПИРАТИЯ(PIRATIYA)\HDTV 1080p\В пустыне смерти ( Into the Badlands )\Into_Тhe_Badlands_2017_S02_5хRus_Eng[LostFilm_АМC_ OmskBird_NewStudio_BaibaKo]_N.B_WEB-DL_1080\Into_Тhe_Badlands_2017_S02Е01_5хRus_Eng_H264_DD5.1_N.B_WEBRip_1080p.mkv
Формат : Matroska
Версия формата : Version 4 / Version 2
Размер файла : 3,26 Гбайт
Продолжительность : 43 м. 6 с.
Режим общего битрейта : Переменный
Общий поток : 10,8 Мбит/сек
Название фильма : Into_Тhe_Badlands_2017_S02Е01_5хRus_Eng_H264_DD5.1_N.B_WEBRip_1080p
Дата кодирования : UTC 2017-04-03 09:44:39
Программа кодирования : mkvmerge v10.0.0 ('To Drown In You') 64bit
Библиотека кодирования : libebml v1.3.4 + libmatroska v1.4.5
Видео
Идентификатор : 1
Формат : AVC
Формат/Информация : Advanced Video Codec
Профиль формата : High@L4
Параметр CABAC формата : Да
Параметр ReFrames формата : 3 кадра
Идентификатор кодека : V_MPEG4/ISO/AVC
Продолжительность : 43 м. 6 с.
Вид битрейта : Переменный
Битрейт : 8010 Кбит/сек
Максимальный битрейт : 8317 Кбит/сек
Ширина : 1920 пикселей
Высота : 1080 пикселей
Соотношение сторон : 16:9
Режим частоты кадров : Постоянный
Частота кадров : 23,976 (24000/1001) кадра/сек
Стандарт вещания : NTSC
Цветовое пространство : YUV
Субдискретизация насыщенности : 4:2:0
Битовая глубина : 8 бит
Тип развёртки : Прогрессивная
Бит/(Пиксели*Кадры) : 0.161
Размер потока : 2,41 Гбайт (74%)
Заголовок : Into_Тhe_Badlands_2017_S02Е01_5хRus_Eng_H264_DD5.1_N.B_WEBRip_1080p
Язык : Russian
Default : Да
Forced : Нет
Цветовой диапазон : Full
Основные цвета : BT.709
Характеристики трансфера : BT.709
Коэффициенты матрицы : BT.709
Аудио #1
Идентификатор : 4
Формат : AC-3
Формат/Информация : Audio Coding 3
Параметр Endianness формата : Big
Идентификатор кодека : A_AC3
Продолжительность : 43 м. 6 с.
Вид битрейта : Постоянный
Битрейт : 640 Кбит/сек
Каналы : 6 каналов
Расположение каналов : Front: L C R, Side: L R, LFE
Частота : 48,0 КГц
Частота кадров : 31,250 кадров/сек (1536 spf)
Битовая глубина : 16 бит
Метод сжатия : С потерями
Размер потока : 197 Мбайт (6%)
Заголовок : MVO LostFilm @DD5.1 AC3, 640 Kbps, 48.0 KHz, 6 ch
Язык : Russian
ServiceKind/String : Complete Main
Default : Да
Forced : Нет
Аудио #2
Идентификатор : 5
Формат : AC-3
Формат/Информация : Audio Coding 3
Параметр Endianness формата : Big
Идентификатор кодека : A_AC3
Продолжительность : 43 м. 6 с.
Вид битрейта : Постоянный
Битрейт : 384 Кбит/сек
Каналы : 6 каналов
Расположение каналов : Front: L C R, Side: L R, LFE
Частота : 48,0 КГц
Частота кадров : 31,250 кадров/сек (1536 spf)
Битовая глубина : 16 бит
Метод сжатия : С потерями
Размер потока : 118 Мбайт (4%)
Заголовок : MVO АМS @DD5.1 AC3, 384 Kbps, 48.0 KHz, 6 ch
Язык : Russian
ServiceKind/String : Complete Main
Default : Нет
Forced : Нет
Аудио #3
Идентификатор : 6
Формат : AC-3
Формат/Информация : Audio Coding 3
Параметр Endianness формата : Big
Идентификатор кодека : A_AC3
Продолжительность : 43 м. 6 с.
Вид битрейта : Постоянный
Битрейт : 384 Кбит/сек
Каналы : 6 каналов
Расположение каналов : Front: L C R, Side: L R, LFE
Частота : 48,0 КГц
Частота кадров : 31,250 кадров/сек (1536 spf)
Битовая глубина : 16 бит
Метод сжатия : С потерями
Размер потока : 118 Мбайт (4%)
Заголовок : MVO OmskBird @DD5.1 AC3, 384 Kbps, 48.0 KHz, 6 ch
Язык : Russian
ServiceKind/String : Complete Main
Default : Нет
Forced : Нет
Аудио #4
Идентификатор : 7
Формат : AC-3
Формат/Информация : Audio Coding 3
Параметр Endianness формата : Big
Идентификатор кодека : A_AC3
Продолжительность : 43 м. 6 с.
Вид битрейта : Постоянный
Битрейт : 384 Кбит/сек
Каналы : 6 каналов
Расположение каналов : Front: L C R, Side: L R, LFE
Частота : 48,0 КГц
Частота кадров : 31,250 кадров/сек (1536 spf)
Битовая глубина : 16 бит
Метод сжатия : С потерями
Размер потока : 118 Мбайт (4%)
Заголовок : MVO NewStudio @DD5.1 AC3, 384 Kbps, 48.0 KHz, 6 ch
Язык : Russian
ServiceKind/String : Complete Main
Default : Нет
Forced : Нет
Аудио #5
Идентификатор : 8
Формат : AC-3
Формат/Информация : Audio Coding 3
Параметр Endianness формата : Big
Идентификатор кодека : A_AC3
Продолжительность : 43 м. 5 с.
Вид битрейта : Постоянный
Битрейт : 384 Кбит/сек
Каналы : 6 каналов
Расположение каналов : Front: L C R, Side: L R, LFE
Частота : 48,0 КГц
Частота кадров : 31,250 кадров/сек (1536 spf)
Битовая глубина : 16 бит
Метод сжатия : С потерями
Размер потока : 118 Мбайт (4%)
Заголовок : MVO BaibaKo @DD5.1 AC3, 384 Kbps, 48.0 KHz, 6 ch
Язык : Russian
ServiceKind/String : Complete Main
Default : Нет
Forced : Нет
Аудио #6
Идентификатор : 9
Формат : AC-3
Формат/Информация : Audio Coding 3
Параметр Endianness формата : Big
Идентификатор кодека : A_AC3
Продолжительность : 43 м. 6 с.
Вид битрейта : Постоянный
Битрейт : 640 Кбит/сек
Каналы : 6 каналов
Расположение каналов : Front: L C R, Side: L R, LFE
Частота : 48,0 КГц
Частота кадров : 31,250 кадров/сек (1536 spf)
Битовая глубина : 16 бит
Метод сжатия : С потерями
Размер потока : 197 Мбайт (6%)
Заголовок : Original@DD5.1 AC3 ,640 Kbps, 48.0 KHz, 6 ch
Язык : English
ServiceKind/String : Complete Main
Default : Нет
Forced : Нет
Текст #1
Идентификатор : 2
Формат : UTF-8
Идентификатор кодека : S_TEXT/UTF8
Идентификатор кодека/Информация : UTF-8 Plain Text
Продолжительность : 42 м. 5 с.
Битрейт : 63 бит/сек
ElementCount : 472
Размер потока : 19,5 Кбайт (0%)
Заголовок : rus (OmskBird)
Язык : Russian
Default : Нет
Forced : Нет
Текст #2
Идентификатор : 3
Формат : UTF-8
Идентификатор кодека : S_TEXT/UTF8
Идентификатор кодека/Информация : UTF-8 Plain Text
Продолжительность : 42 м. 21 с.
Битрейт : 47 бит/сек
ElementCount : 592
Размер потока : 14,6 Кбайт (0%)
Заголовок : Original
Язык : English
Default : Нет
Forced : Нет
Текст #3
Идентификатор : 10
Формат : UTF-8
Идентификатор кодека : S_TEXT/UTF8
Идентификатор кодека/Информация : UTF-8 Plain Text
Продолжительность : 42 м. 21 с.
Битрейт : 47 бит/сек
ElementCount : 586
Размер потока : 14,7 Кбайт (0%)
Заголовок : SDH
Язык : English
Default : Нет
Forced : Нет
Меню
00:00:00.000 : en:Глава 01 / en:Глава 01 / en:Глава 01 / en:Глава 01 / en:Глава 01 / en:Глава 01 / en:Глава 01 / en:Глава 01 / en:Глава 01 / en:Глава 01
--

Скриншоты

-- --

Как закачать отдельный файл

1. Открыть торрент
2. Снять галки с тех файлов торрента, которые мы не хотим закачивать. Оставляем только на нужных нам файлах (файле).
3. Нажать О.К.
В клиенте utorrent
Инструкция
1) Открыть торрент

2) Снять галки с тех файлов торрента, которые мы не хотим закачивать:
* либо вручную, снимая с каждого файла галку( скрин №1)
* либо, нажав кнопку "Снять метки (Select None)", сняв сразу со всех файлов(скрин №2)
№1

№2

Оставляем только на нужных нам файлах (файле).

3)Нажать О.К
-- -- --Внимание!!! 26.05. 2017. РАЗДАЧА ОБНОВЛЕНА. ФИНАЛ СЕЗОНА. ОБНОВИТЕ ТОРЕНТ ФАЙЛ.ПРИЯТНОГО ПРОСМОТРА . --Релиз от: Nikolai.Baranov & PIRATIYA -- -- -- --
[Profile]  [PM] 
Display posts:    
Reply to topic

Current time is: 30-Mar 22:05

All times are UTC + 2



You cannot post new topics in this forum
You cannot reply to topics in this forum
You cannot edit your posts in this forum
You cannot delete your posts in this forum
You cannot vote in polls in this forum
You cannot attach files in this forum
You cannot download files in this forum