Игра престолов / Game of Thrones / Сезон: 1 / Серии: 1-10 (10) (Брайан Кирк, Даниэль Минахан, Алан Тейлор, Тимоти Ван Паттен) [2011, Фэнтези, Драма, HDTV 720p] MVO (Alexfilm + LostFilm) + Original eng + Sub (rus, ukr, eng)

Reply to topic
 
Author
Message

Satyr ®

Online

Gender: Unknown

Longevity: 11 years

Posts: 15402

Reputation: 54 [+] [-]

Satyr · Post 07-Apr-2013 23:26

[Quote] 

Игра престолов / Game of Thrones Год выпуска: 2011
Страна: США
Жанр: Фэнтези, Драма
Продолжительность: 60 минут
Перевод: профессиональный многоголосый закадровый (Alexfilm)
Перевод 2: профессиональный многоголосый закадровый (Lostfilm)
Оригинальная дорожка: английская
Русские субтитры: есть
Субтитры: Russian (Dara, Opel), Russian (7kingdoms.ru), Ukrainian, English
Режиссёр: Брайан Кирк, Даниэль Минахан, Алан Тейлор, Тимоти Ван Паттен
В ролях: Шон Бин, Марк Эдди, Лина Хиди, Эмилия Кларк, Питер Динклэйдж, Рон Донаки, Джейсон Момоа, Исаак Хемпстид-Райт, Эйдан Джиллен, Джек Глисон и др.
Описание: Игра Престолов основана на серии книг Джорджа Р. Р. Мартина. Это эпическая борьба за власть, происходящая в огромном неистовом фэнтезийном королевстве.
Мировая премьера: 17 апреля 2011 года
Премьера РФ: 8 сентября 2011 года

Сэмпл
Качество: HDTV 720p
Источник: Game of Thrones S01 1080i HDTV MPEG-2 DD5.1-CtrlHD - http://torrentsland.com.ua/viewtopic.php?t=4804
Формат: MKV
Видео кодек: H.264
Аудиокодек: AC3
Видео: 1280x714 at , x264@L4.1, 2pass, ~5800 kbps avg
Аудио: Russian: 48 kHz, AC3, 3/2 (L,C,R,l,r) + LFE ch, ~448.00 kbps avg |Многоголосый закадровый, AlexFilm|
Аудио 2: Russian: 48 kHz, AC3, 3/2 (L,C,R,l,r) + LFE ch, ~448.00 kbps avg |Многоголосый закадровый, LostFilm|
Аудио 3: English: 48 kHz, AC3, 3/2 (L,C,R,l,r) + LFE ch, ~384.00 kbps avg |Оригинал|-Дорожка №1
Перевод: Dara, Opel при участии сайта Цитадель Детей Света
Озвучено: Студия "AlexFilm"

Текст читали: Дарья Бобылёва, Евгения Тихонова, Пётр Иващенко (Гланц), Александр Воронов, Александр Дасевич, Алексей Шмелёв
Дорожка №2
Перевод: DeadMan совместно с 7kingdoms
Озвучание: Студия "Kravec".
-Релиз: -

MI

General
Unique ID : 247972182638324211264561436530116390407 (0xBA8DB4877380467BBB597E633E83EE07)
Complete name : ...\Game.of.Thrones.S01.720p.HDTVRip.2xRus.Eng.HDCLUB\Game.of.Thrones.S01E01.720p.HDTVRip.2xRus.Eng.HDCLUB.mkv
Format : Matroska
File size : 3.05 GiB
Duration : 1h 1mn
Overall bit rate : 7 084 Kbps
Movie name : Game of Thrones [Season 1] (2011) - Release for HDCLUB
Encoded date : UTC 2011-04-21 22:32:49
Writing application : mkvmerge v4.6.0 ('Still Crazy After All These Years') built on Mar 10 2011 02:50:32
Writing library : libebml v1.2.0 + libmatroska v1.1.0
Video
ID : 1
Format : AVC
Format/Info : Advanced Video Codec
Format profile : High@L4.1
Format settings, CABAC : Yes
Format settings, ReFrames : 9 frames
Codec ID : V_MPEG4/ISO/AVC
Duration : 1h 1mn
Bit rate : 5 800 Kbps
Width : 1 280 pixels
Height : 714 pixels
Display aspect ratio : 16:9
Frame rate : 23.976 fps
Color space : YUV
Chroma subsampling : 4:2:0
Bit depth : 8 bits
Scan type : Progressive
Bits/(Pixel*Frame) : 0.265
Stream size : 2.44 GiB (80%)
Title : Season 1, Episode 1: Winter is coming / Зима Близко - Release for HDCLUB
Writing library : x264 core 115 r1936 7a9e08d
Encoding settings : cabac=1 / ref=9 / deblock=1:-3:-3 / analyse=0x3:0x133 / me=tesa / subme=10 / psy=1 / psy_rd=1.10:0.10 / mixed_ref=1 / me_range=32 / chroma_me=1 / trellis=2 / 8x8dct=1 / cqm=0 / deadzone=21,11 / fast_pskip=0 / chroma_qp_offset=-3 / threads=8 / sliced_threads=0 / nr=0 / decimate=0 / interlaced=0 / bluray_compat=0 / constrained_intra=0 / bframes=12 / b_pyramid=2 / b_adapt=2 / b_bias=0 / direct=3 / weightb=1 / open_gop=0 / weightp=2 / keyint=250 / keyint_min=23 / scenecut=40 / intra_refresh=0 / rc=2pass / mbtree=0 / bitrate=5800 / ratetol=1.0 / qcomp=0.70 / qpmin=0 / qpmax=69 / qpstep=4 / cplxblur=20.0 / qblur=0.5 / ip_ratio=1.40 / pb_ratio=1.30 / aq=2:0.60
Language : English
Audio #1
ID : 2
Format : AC-3
Format/Info : Audio Coding 3
Mode extension : CM (complete main)
Codec ID : A_AC3
Duration : 1h 1mn
Bit rate mode : Constant
Bit rate : 448 Kbps
Channel(s) : 6 channels
Channel positions : Front: L C R, Side: L R, LFE
Sampling rate : 48.0 KHz
Bit depth : 16 bits
Compression mode : Lossy
Stream size : 197 MiB (6%)
Title : AlexFilm
Language : Russian
Audio #2
ID : 3
Format : AC-3
Format/Info : Audio Coding 3
Mode extension : CM (complete main)
Codec ID : A_AC3
Duration : 1h 1mn
Bit rate mode : Constant
Bit rate : 448 Kbps
Channel(s) : 6 channels
Channel positions : Front: L C R, Side: L R, LFE
Sampling rate : 48.0 KHz
Bit depth : 16 bits
Compression mode : Lossy
Stream size : 197 MiB (6%)
Title : LostFilm
Language : Russian
Audio #3
ID : 4
Format : AC-3
Format/Info : Audio Coding 3
Mode extension : CM (complete main)
Codec ID : A_AC3
Duration : 1h 1mn
Bit rate mode : Constant
Bit rate : 384 Kbps
Channel(s) : 6 channels
Channel positions : Front: L C R, Side: L R, LFE
Sampling rate : 48.0 KHz
Bit depth : 16 bits
Compression mode : Lossy
Stream size : 169 MiB (5%)
Language : English
Text #1
ID : 5
Format : UTF-8
Codec ID : S_TEXT/UTF8
Codec ID/Info : UTF-8 Plain Text
Language : Russian
Text #2
ID : 6
Format : UTF-8
Codec ID : S_TEXT/UTF8
Codec ID/Info : UTF-8 Plain Text
Language : Russian
Text #3
ID : 7
Format : UTF-8
Codec ID : S_TEXT/UTF8
Codec ID/Info : UTF-8 Plain Text
Language : English

Скриншоты

Список серий

1 серия - Winter is coming / Зима Близко
2 серия - The Kingsroad / Королевский Тракт
3 серия - Lord Snow / Лорд Сноу
4 серия - Cripples, Bastards, and Broken Things / Калеки, бастарды и сломанные вещи
5 серия - The Wolf and the Lion / Волк и Лев
6 серия - A Golden Crown / Золотая корона
7 серия - You Win or You Die / Ты побеждаешь или погибаешь
8 серия - The Pointy End / Острый конец
9 серия - Baelor / Бейелор
10 серия - Fire and Blood / Огонь и кровь
--«You win or you die»--
[Profile]  [PM] 
Display posts:    
Reply to topic

Current time is: 30-Mar 20:32

All times are UTC + 2



You cannot post new topics in this forum
You cannot reply to topics in this forum
You cannot edit your posts in this forum
You cannot delete your posts in this forum
You cannot vote in polls in this forum
You cannot attach files in this forum
You cannot download files in this forum