Тёмные начала / His Dark Materials (Сезон 1 , Серия 1-8 из 8) (Джейми Чайлдс, Том Хупер) [2019,Фэнтези, драма, приключения, семейный,WEB-DLRip 1080p] [LostFilm+Novamedia+HDRezka+Jaskier+NewStudio+ENG]+[Subs Rus , ENG]

Reply to topic
 
Author
Message

Враг Нароода ®

Gender: Unknown

Longevity: 7 years

Posts: 495

Reputation: 1 [+] [-]

Враг Нароода · Post 07-Dec-2019 12:09

[Quote] 

-- --Тёмные начала / His Dark Materials Сезон 1 , Серия 1-8 из 8 - Полный Комплект --«Истина лежит за пределами мира, который мы знаем»-- --Год выпуска: 2019
Выпущено: Великобритания, США, BBC Television Centre, New Line Cinema, Bad Wolf, Scholastic
Жанр: фэнтези, драма, приключения, семейный
Продолжительность: 00:45:00
Сезон: 1
Серия:1-7
Количество серий в сезоне:8--Озвучка #1: профессиональный (дублированный) - Novamedia по заказу Amedia - Русский
Озвучка #2: Профессиональный многоголосый - Lostfilm - Русский
Озвучка #3: Профессиональный многоголосый - HDRezka Studio - Русский
Озвучка #4: Профессиональный многоголосый - NewStudio - Русский
Озвучка #5: Профессиональный многоголосый - Jaskier - Русский
Озвучка #6: Профессиональный многоголосый - AlexFilm - Русский
Озвучка #7: Профессиональный многоголосый - TVShows - Русский
Озвучка #8: Профессиональный многоголосый -Английский - Оригинал
Субтитры: Russian , English , English SDH
--Релиз Без Рекламы -- СКАСАТЬ РАЗДАЧУ --MDB 8.6 --Режиссеры:
Джейми Чайлдс, Том Хупер, Доун Шадфорт, Отто Батхёрст, Эрос Лин--В ролях: : Дафни Кин, Джеймс МакЭвой, Рут Уилсон, Энн-Мэри Дафф, Кларк Питерс, Джеймс Космо, Эрион Бакаре, Уилл Кин, Лусиан Мсамати, Гари Льюис, Левин Ллойд, Дэниэль Фрогсан-- Телевизионная адаптация фантастической трилогии Филипа Пулмана "Тёмные начала".
Лира Белаква, на первый взгляд обыкновенная, но смелая девочка, живёт в мире, где переплетены магия, теология и наука. Однажды у Лиры пропадает друг, и поиски приводят её к зловещему заговору с участием похищенных детей и таинственному явлению под названием Пыль. В своём загадочном и опасном путешествии по мирам, включая наш собственный, Лира встречает решительного и смелого мальчика по имени Уилл и осознает настоящую цену честности и лжи, когда становится обладателем необычного инструмента, который может дать ответы на любые вопросы. Вместе они сталкиваются с необычными существами и опасными тайнами, а в их руках оказываются судьбы как живых, так и мёртвых.
-- --Качество :WEB-DLRip 1080p
Формат: MKV
Видео кодек: H264
Видео: 9266Кбит/сек,1920х1080(16.9),в 25.000кадр/сек,AVC (High@L4)(CABAC/4 Ref Frames)--Аудио Кодек:AC3
Аудио #1:MVO LostFilm @DD5.1 AC3, 640 Kbps, 48.0 KHz, 6 ch- Lostfilm -Русский
Аудио #2:Dub Novamedia @DD5.1 AC3, 640 Kbps, 48.0 KHz, 6 ch-Novamedia -Русский
Аудио #3:.MVO HDRezka Studio @DD5.1 AC3, 640 Kbps, 48.0 KHz, 6 ch-HDRezka Studio -Русский
Аудио #4:MVO NewStudio @DD5.1 AC3, 384 Kbps, 48.0 KHz, 6 ch-NewStudio -Русский
Аудио #5:MVO Jaskier @DD5.1 AC3, 384 Kbps, 48.0 KHz, 6 ch-Jaskier -Русский
Аудио #6:MVO AlexFilm @DD5.1 AC3, 384 Kbps, 48.0 KHz, 6 ch-AlexFilm -Русский
Аудио #7:MVO TVShows @DD5.1 AC3, 384 Kbps, 48.0 KHz, 6 ch-TVShows -Русский
Аудио #8: Original@DD5.1 E-AC3 ,640 Kbps, 48.0 KHz, 6 ch - English - Оригинал--

Доп. информация:

Звуковая дорожка сделана путем наложения чистого голоса озвучивателей на центральный канал оригинальной дорожки. Качество идентично звуковой дорожке.
--

Список эпизодов сезона


1 сезон 1 серия - Иордан Лиры - Lyra's Jordan
1 сезон 2 серия - Идея Севера - The Idea of the North
1 сезон 3 серия - Шпионы - The Spies
1 сезон 4 серия - Броня - Armour
1 сезон 5 серия - Пропавший мальчик - The Lost Boy
1 сезон 6 серия - Клетки деймонов - The Daemon Cages
1 сезон 7 серия - Смертельная битва - The Fight to the Death
1 сезон 8 серия - Предательство - Betrayal
--

MediaInfo сезона

Общее
Уникальный идентификатор : 79482310714197395531183938851997811863 (0x3BCBBC7943D3E04F6D7C878578050497)
Полное имя : D:\RussianPatriot\Тёмные начала - His Dark Materials\His.Dark.Materials_2019_S01_Н264_DD5.1_N.B_HD_1080_7xRus_Eng\His.Dark.Materials_2019_S01E01_Н264_DD5.1_N.B_HD_1080_7xRus_Eng.mkv
Формат : Matroska
Версия формата : Version 4
Размер файла : 5,10 Гбайт
Продолжительность : 55 м. 33 с.
Общий поток : 13,1 Мбит/сек
Название фильма : His Dark Materials 2019 S01E01 @ Nikolai.Baranov & PIRATIYA
Дата кодирования : UTC 2019-12-06 13:40:15
Программа кодирования : mkvmerge v40.0.0 ('Old Town Road + Pony') 64-bit
Библиотека кодирования : libebml v1.3.9 + libmatroska v1.5.2 / Lavf58.20.100
Видео
Идентификатор : 1
Формат : AVC
Формат/Информация : Advanced Video Codec
Профиль формата : High@L4
Настройки формата : CABAC / 4 Ref Frames
Параметр CABAC формата : Да
Параметр RefFrames формата : 4 кадра
Идентификатор кодека : V_MPEG4/ISO/AVC
Продолжительность : 54 м. 38 с.
Вид битрейта : Постоянный
Битрейт : 9266 Кбит/сек
Номинальный битрейт : 10000 Кбит/сек
Ширина : 1920 пикселей
Высота : 1080 пикселей
Соотношение сторон : 16:9
Режим частоты кадров : Постоянный
Частота кадров : 25,000 кадров/сек
Цветовое пространство : YUV
Субдискретизация насыщенности : 4:2:0
Битовая глубина : 8 бит
Тип развёртки : Прогрессивная
Бит/(Пиксели*Кадры) : 0.179
Размер потока : 3,54 Гбайт (69%)
Заголовок : His.Dark.Materials_2019_S01E01_Н264_DD5.1_N.B_HD_1080_7xRus_Eng
Язык : Russian
Default : Да
Forced : Нет
Цветовой диапазон : Limited
Основные цвета : BT.709
Характеристики трансфера : BT.709
Коэффициенты матрицы : BT.709
Аудио #1
Идентификатор : 2
Формат : AC-3
Формат/Информация : Audio Coding 3
Коммерческое название : Dolby Digital
Идентификатор кодека : A_AC3
Продолжительность : 54 м. 38 с.
Вид битрейта : Постоянный
Битрейт : 640 Кбит/сек
Каналы : 6 каналов
ChannelLayout : L R C LFE Ls Rs
Частота : 48,0 КГц
Частота кадров : 31,250 кадров/сек (1536 SPF)
Метод сжатия : С потерями
Задержка видео : -80 мс.
Размер потока : 250 Мбайт (5%)
Заголовок : Dub Novamedia @DD5.1 AC3, 640 Kbps, 48.0 KHz, 6 ch
Язык : Russian
ServiceKind/String : Complete Main
Default : Да
Forced : Нет
Аудио #2
Идентификатор : 3
Формат : AC-3
Формат/Информация : Audio Coding 3
Коммерческое название : Dolby Digital
Идентификатор кодека : A_AC3
Продолжительность : 54 м. 38 с.
Вид битрейта : Постоянный
Битрейт : 640 Кбит/сек
Каналы : 6 каналов
ChannelLayout : L R C LFE Ls Rs
Частота : 48,0 КГц
Частота кадров : 31,250 кадров/сек (1536 SPF)
Метод сжатия : С потерями
Задержка видео : -80 мс.
Размер потока : 250 Мбайт (5%)
Заголовок : MVO LostFilm @DD5.1 AC3, 640 Kbps, 48.0 KHz, 6 ch
Язык : Russian
ServiceKind/String : Complete Main
Default : Нет
Forced : Нет
Аудио #3
Идентификатор : 4
Формат : AC-3
Формат/Информация : Audio Coding 3
Коммерческое название : Dolby Digital
Идентификатор кодека : A_AC3
Продолжительность : 54 м. 38 с.
Вид битрейта : Постоянный
Битрейт : 640 Кбит/сек
Каналы : 6 каналов
ChannelLayout : L R C LFE Ls Rs
Частота : 48,0 КГц
Частота кадров : 31,250 кадров/сек (1536 SPF)
Метод сжатия : С потерями
Задержка видео : -80 мс.
Размер потока : 250 Мбайт (5%)
Заголовок : MVO HDRezka Studio @DD5.1 AC3, 640 Kbps, 48.0 KHz, 6 ch
Язык : Russian
ServiceKind/String : Complete Main
Default : Нет
Forced : Нет
Аудио #4
Идентификатор : 5
Формат : AC-3
Формат/Информация : Audio Coding 3
Коммерческое название : Dolby Digital
Идентификатор кодека : A_AC3
Продолжительность : 54 м. 38 с.
Вид битрейта : Постоянный
Битрейт : 384 Кбит/сек
Каналы : 6 каналов
ChannelLayout : L R C LFE Ls Rs
Частота : 48,0 КГц
Частота кадров : 31,250 кадров/сек (1536 SPF)
Метод сжатия : С потерями
Задержка видео : -80 мс.
Размер потока : 150 Мбайт (3%)
Заголовок : MVO TVShows @DD5.1 AC3, 384 Kbps, 48.0 KHz, 6 ch
Язык : Russian
ServiceKind/String : Complete Main
Default : Нет
Forced : Нет
Аудио #5
Идентификатор : 6
Формат : AC-3
Формат/Информация : Audio Coding 3
Коммерческое название : Dolby Digital
Идентификатор кодека : A_AC3
Продолжительность : 54 м. 38 с.
Вид битрейта : Постоянный
Битрейт : 384 Кбит/сек
Каналы : 6 каналов
ChannelLayout : L R C LFE Ls Rs
Частота : 48,0 КГц
Частота кадров : 31,250 кадров/сек (1536 SPF)
Метод сжатия : С потерями
Задержка видео : -80 мс.
Размер потока : 150 Мбайт (3%)
Заголовок : MVO AlexFilm @DD5.1 AC3, 384 Kbps, 48.0 KHz, 6 ch
Язык : Russian
ServiceKind/String : Complete Main
Default : Нет
Forced : Нет
Аудио #6
Идентификатор : 7
Формат : AC-3
Формат/Информация : Audio Coding 3
Коммерческое название : Dolby Digital
Идентификатор кодека : A_AC3
Продолжительность : 54 м. 38 с.
Вид битрейта : Постоянный
Битрейт : 384 Кбит/сек
Каналы : 6 каналов
ChannelLayout : L R C LFE Ls Rs
Частота : 48,0 КГц
Частота кадров : 31,250 кадров/сек (1536 SPF)
Метод сжатия : С потерями
Задержка видео : -80 мс.
Размер потока : 150 Мбайт (3%)
Заголовок : MVO NewStudio @DD5.1 AC3, 384 Kbps, 48.0 KHz, 6 ch
Язык : Russian
ServiceKind/String : Complete Main
Default : Нет
Forced : Нет
Аудио #7
Идентификатор : 8
Формат : AC-3
Формат/Информация : Audio Coding 3
Коммерческое название : Dolby Digital
Идентификатор кодека : A_AC3
Продолжительность : 54 м. 38 с.
Вид битрейта : Постоянный
Битрейт : 384 Кбит/сек
Каналы : 6 каналов
ChannelLayout : L R C LFE Ls Rs
Частота : 48,0 КГц
Частота кадров : 31,250 кадров/сек (1536 SPF)
Метод сжатия : С потерями
Задержка видео : -80 мс.
Размер потока : 150 Мбайт (3%)
Заголовок : MVO Jaskier @DD5.1 AC3, 384 Kbps, 48.0 KHz, 6 ch
Язык : Russian
ServiceKind/String : Complete Main
Default : Нет
Forced : Нет
Аудио #8
Идентификатор : 9
Формат : E-AC-3
Формат/Информация : Enhanced AC-3
Коммерческое название : Dolby Digital Plus
Идентификатор кодека : A_EAC3
Продолжительность : 54 м. 38 с.
Вид битрейта : Постоянный
Битрейт : 640 Кбит/сек
Каналы : 6 каналов
ChannelLayout : L R C LFE Ls Rs
Частота : 48,0 КГц
Частота кадров : 31,250 кадров/сек (1536 SPF)
Метод сжатия : С потерями
Размер потока : 250 Мбайт (5%)
Заголовок : Original@DD5.1 E-AC3 ,640 Kbps, 48.0 KHz, 6 ch
Язык : English
ServiceKind/String : Complete Main
Default : Нет
Forced : Нет
Текст #1
Идентификатор : 10
Формат : UTF-8
Идентификатор кодека : S_TEXT/UTF8
Идентификатор кодека/Информация : UTF-8 Plain Text
Продолжительность : 34 м. 12 с.
Битрейт : 5 бит/сек
ElementCount : 20
Размер потока : 1,38 Кбайт (0%)
Заголовок : Russian-Forced
Язык : Russian
Default : Да
Forced : Нет
Текст #2
Идентификатор : 11
Формат : UTF-8
Идентификатор кодека : S_TEXT/UTF8
Идентификатор кодека/Информация : UTF-8 Plain Text
Продолжительность : 53 м. 8 с.
Битрейт : 95 бит/сек
ElementCount : 810
Размер потока : 37,3 Кбайт (0%)
Заголовок : Russian-Amedia
Язык : Russian
Default : Нет
Forced : Нет
Текст #3
Идентификатор : 12
Формат : UTF-8
Идентификатор кодека : S_TEXT/UTF8
Идентификатор кодека/Информация : UTF-8 Plain Text
Продолжительность : 54 м. 14 с.
Битрейт : 68 бит/сек
ElementCount : 868
Размер потока : 27,2 Кбайт (0%)
Заголовок : Original - SDH
Язык : English
Default : Нет
Forced : Нет
Текст #4
Идентификатор : 13
Формат : UTF-8
Идентификатор кодека : S_TEXT/UTF8
Идентификатор кодека/Информация : UTF-8 Plain Text
Продолжительность : 53 м. 30 с.
Битрейт : 141 бит/сек
ElementCount : 764
Размер потока : 55,3 Кбайт (0%)
Заголовок : Original
Язык : English
Default : Нет
Forced : Нет
Меню #1
00:00:00.080 : ru:Chapter 01 / ru:Chapter 01 / ru:Chapter 01 / ru:Chapter 01 / ru:Chapter 01 / ru:Chapter 01 / ru:Chapter 01 / ru:Chapter 01 / ru:Chapter 01 / ru:Chapter 01 / ru:Chapter 01 / ru:Chapter 01 / ru:Chapter 01
Меню #2
00:00:00.079 : ru:Chapter 01
--

Скриншоты

-- --

Как закачать отдельный файл

1. Открыть торрент
2. Снять галки с тех файлов торрента, которые мы не хотим закачивать. Оставляем только на нужных нам файлах (файле).
3. Нажать О.К.
В клиенте utorrent
Инструкция
1) Открыть торрент

2) Снять галки с тех файлов торрента, которые мы не хотим закачивать:
* либо вручную, снимая с каждого файла галку( скрин №1)
* либо, нажав кнопку "Снять метки (Select None)", сняв сразу со всех файлов(скрин №2)
№1

№2

Оставляем только на нужных нам файлах (файле).

3)Нажать О.К
-- -- --Внимание!!! 30.12. 2019. РАЗДАЧА ОБНОВЛЕНА. ДОБАВЛЕНА -8- СЕРИЯ Финал Сезона. ОБНОВИТЕ ТОРЕНТ ФАЙЛ. ПРИЯТНОГО ПРОСМОТРА . Поблагодарить:
ЯД: 410017546713876
--Релиз от: Nikolai.Baranov & PIRATIYA -- -- -- --Время раздачи : 24/7---
[Profile]  [PM] 
Display posts:    
Reply to topic

Current time is: 20-Sep 13:26

All times are UTC + 2



You cannot post new topics in this forum
You cannot reply to topics in this forum
You cannot edit your posts in this forum
You cannot delete your posts in this forum
You cannot vote in polls in this forum
You cannot attach files in this forum
You cannot download files in this forum