Легендарный квест: Пир ворона/ Mythic Quest: Raven's Banquet(Сезон 1 , Серия 1-9 из 9) (Чарли Дэй, Роб МакЭлхенни) [2020, Комедия,WEB-DLRip 1080p] [LostFilm+Eng]+[Subs Rus ,Ukr ,ENG]

Reply to topic
 
Author
Message

Враг Нароода ®

Gender: Unknown

Longevity: 7 years

Posts: 495

Reputation: 1 [+] [-]

Враг Нароода · Post 18-Feb-2020 19:43

[Quote] 

-- Легендарный квест: Пир ворона/ Mythic Quest: Raven's Banquet(Сезон 1 , Серия 1-9 из 9) -Полный Комплект -- --Год выпуска: 2020
Выпущено: США , Arts Entertainment, Lions Gate Television, Ubisoft Motion Pictures
Жанр: Комедия
Продолжительность: 00:30:00
Сезон:1
Серия:1-9
Количество серий в сезоне:9--Озвучка #1: Профессиональный многоголосый - LostFilm - Русский
Озвучка #2: Профессиональный многоголосый -Английский - Оригинал
Субтитры: Russian , Украинскиe, English, English SDH
--Релиз Без Рекламы --MDB 7.4 --Режиссеры:
Чарли Дэй, Роб МакЭлхенни--В ролях: Элиша Хениг, Кэйтлин МакГи, Рейн Дои, Ф. Мюррэй Абрахам, Эмили Берри, Эшли Берч, МакКольм Сепас мл., Стивенсон Кроссли, Ава Давила, Джесси Эннис-- Сюжет рассказывает о группе разработчиков компьютерных игр. Они готовятся к выпуску нового хита. Общественность с нетерпением ожидает появления этого проекта, однако мало кто представляет, как именно проходит процесс и кто именно занимается разработкой. Среди геймдевов оказываются весьма интересные личности, некоторые из которых ещё, кажется, слишком юны для своего дела. Правда, гики, как показывает практика, приносят только пользу в подобных делах. Руководит этим коллективом Ян Гримм, человек, чья креативность не знает границ, однако именно ему предстоит распутывать узелки сюжета, причем не в игре, а в собственном офисе, пытаясь наладить контакты со своими подопечными, которые не прочь вступить в настоящую фракционную войну друг с другом.-- --Качество :WEB-DLRip - HEVC 10bit - 1080p
Формат: MKV
Видео кодек: H265
Видео: 3848Кбит/сек,1920х1080(16.9),в 23.976кадр/сек, HEVC (Main10@L5.1@Main)--Аудио Кодек:AC3
Аудио #1: MVO LostFilm @DD5.1 AC3, 640 Kbps, 48.0 KHz, 6 ch- LostFilm -Русский
Аудио #2: Original@DD5.1 AC3 ,640 Kbps, 48.0 KHz, 6 ch - English - Оригинал--

Доп. информация:

Звуковая дорожка сделана путем наложения чистого голоса озвучивателей на центральный канал оригинальной дорожки. Качество идентично звуковой дорожке.
--

Список эпизодов сезона


1 сезон 1 серия - Пилот - Pilot
1 сезон 2 серия - Казино - The Casino
1 сезон 3 серия - Званый ужин - Dinner Party
1 сезон 4 серия - Конвенция - The Convention
1 сезон 5 серия - Тихая темная смерть - A Dark Quiet Death
1 сезон 6 серия - Неигровой персонаж - Non-Player Character
1 сезон 7 серия - Перманентная смерть - Permadeath
1 сезон 8 серия - Брэндан - Brendan
1 сезон 9 серия - Океан крови - Blood Ocean
--

MediaInfo 1-сезон

Общее
Уникальный идентификатор : 206457245954677841237921152643074593015 (0x9B52381EEE9182FCB82CA319B29390F7)
Полное имя : D:\PIRATIYA\Легендарный квест Пир ворона - Mythic Quest Raven's Banquet\Mythic_Quest_Raven's_Banquet_ 2020_S01_HEVC- 10Bit_Н265_DD5.1_N.B_HD_1080_Rus_LostFilm_Eng\Mythic_Quest_Raven's_Banquet_S01E01_HEVC_DD5.1_N.B_HD_1080_Rus_LostFilm_Eng.mkv
Формат : Matroska
Версия формата : Version 4
Размер файла : 1,03 Гбайт
Продолжительность : 28 м. 41 с.
Общий поток : 5127 Кбит/сек
Название фильма : Mythic Quest Raven's Banquet 2020 S01E01 @ Nikolai.Baranov & PIRATIYA
Дата кодирования : UTC 2020-02-18 13:31:10
Программа кодирования : mkvmerge v43.0.0 ('The Quartermaster') 64-bit
Библиотека кодирования : libebml v1.3.10 + libmatroska v1.5.2
Видео
Идентификатор : 1
Формат : HEVC
Формат/Информация : High Efficiency Video Coding
Профиль формата : Main 10@L5.1@Main
Идентификатор кодека : V_MPEGH/ISO/HEVC
Продолжительность : 28 м. 40 с.
Битрейт : 3848 Кбит/сек
Ширина : 1920 пикселей
Высота : 1080 пикселей
Соотношение сторон : 16:9
Режим частоты кадров : Постоянный
Частота кадров : 23,976 (24000/1001) кадра/сек
Цветовое пространство : YUV
Субдискретизация насыщенности : 4:2:0
Битовая глубина : 10 бит
Бит/(Пиксели*Кадры) : 0.077
Размер потока : 789 Мбайт (75%)
Заголовок : Mythic_Quest_Raven's_Banquet_S01E01_HEVC_DD5.1_N.B_HD_1080_Rus_LostFilm_Eng
Язык : Russian
Default : Да
Forced : Нет
Цветовой диапазон : Full
Основные цвета : BT.709
Характеристики трансфера : BT.709
Коэффициенты матрицы : BT.709
Аудио #1
Идентификатор : 3
Формат : AC-3
Формат/Информация : Audio Coding 3
Коммерческое название : Dolby Digital
Идентификатор кодека : A_AC3
Продолжительность : 28 м. 38 с.
Вид битрейта : Постоянный
Битрейт : 640 Кбит/сек
Каналы : 6 каналов
ChannelLayout : L R C LFE Ls Rs
Частота : 48,0 КГц
Частота кадров : 31,250 кадров/сек (1536 SPF)
Метод сжатия : С потерями
Размер потока : 131 Мбайт (12%)
Заголовок : MVO LostFilm @DD5.1 AC3, 640 Kbps, 48.0 KHz, 6 ch
Язык : Russian
ServiceKind/String : Complete Main
Default : Да
Forced : Нет
Аудио #2
Идентификатор : 4
Формат : AC-3
Формат/Информация : Audio Coding 3
Коммерческое название : Dolby Digital
Идентификатор кодека : A_AC3
Продолжительность : 28 м. 40 с.
Вид битрейта : Постоянный
Битрейт : 640 Кбит/сек
Каналы : 6 каналов
ChannelLayout : L R C LFE Ls Rs
Частота : 48,0 КГц
Частота кадров : 31,250 кадров/сек (1536 SPF)
Метод сжатия : С потерями
Размер потока : 131 Мбайт (12%)
Заголовок : Original@DD5.1 AC3 ,640 Kbps, 48.0 KHz, 6 ch
Язык : English
ServiceKind/String : Complete Main
Default : Нет
Forced : Нет
Текст #1
Идентификатор : 2
Формат : UTF-8
Идентификатор кодека : S_TEXT/UTF8
Идентификатор кодека/Информация : UTF-8 Plain Text
Продолжительность : 28 м. 24 с.
Битрейт : 145 бит/сек
ElementCount : 531
Размер потока : 30,3 Кбайт (0%)
Заголовок : Пилот-Russian
Язык : Russian
Default : Да
Forced : Нет
Текст #2
Идентификатор : 5
Формат : UTF-8
Идентификатор кодека : S_TEXT/UTF8
Идентификатор кодека/Информация : UTF-8 Plain Text
Продолжительность : 27 м. 16 с.
Битрейт : 112 бит/сек
ElementCount : 559
Размер потока : 22,6 Кбайт (0%)
Заголовок : Pilot -Original - SDH
Язык : English
Default : Нет
Forced : Нет
Текст #3
Идентификатор : 6
Формат : UTF-8
Идентификатор кодека : S_TEXT/UTF8
Идентификатор кодека/Информация : UTF-8 Plain Text
Продолжительность : 28 м. 33 с.
Битрейт : 88 бит/сек
ElementCount : 526
Размер потока : 18,6 Кбайт (0%)
Заголовок : Pilot -Original
Язык : English
Default : Нет
Forced : Нет
Меню
00:00:00.000 : ru:Глава 01 / ru:Глава 01 / ru:Глава 01 / ru:Глава 01 / ru:Глава 01 / ru:Глава 01
--

Скриншоты

-- 1-сезон.--

Как закачать отдельный файл

1. Открыть торрент
2. Снять галки с тех файлов торрента, которые мы не хотим закачивать. Оставляем только на нужных нам файлах (файле).
3. Нажать О.К.
В клиенте utorrent
Инструкция
1) Открыть торрент

2) Снять галки с тех файлов торрента, которые мы не хотим закачивать:
* либо вручную, снимая с каждого файла галку( скрин №1)
* либо, нажав кнопку "Снять метки (Select None)", сняв сразу со всех файлов(скрин №2)
№1

№2

Оставляем только на нужных нам файлах (файле).

3)Нажать О.К
-- -- --Внимание!!! 18.03. 2020. РАЗДАЧА ОБНОВЛЕНА. ДОБАВЛЕНЫ -ФИНАЛЬНЫЕ СЕРИИ ФИНАЛ СЕЗОНА . ОБНОВИТЕ ТОРЕНТ ФАЙЛ. ПРИЯТНОГО ПРОСМОТРА . Поблагодарить:
ЯД: 410017546713876
--Релиз от: Nikolai.Baranov & PIRATIYA -- -- -- --Время раздачи : 24/7---
[Profile]  [PM] 
Display posts:    
Reply to topic

Current time is: 20-Sep 13:58

All times are UTC + 2



You cannot post new topics in this forum
You cannot reply to topics in this forum
You cannot edit your posts in this forum
You cannot delete your posts in this forum
You cannot vote in polls in this forum
You cannot attach files in this forum
You cannot download files in this forum