Тень и кость / Shadow and Bone (Сезон 1 , Серия 1-8 из 8) (Майрзи Алмас) [2021, Фэнтези, боевик, драма,WEB-DLRip - HEVC - 1080p] [ DUB- SDI Media+ LostFilm +HDRezka +AlexFilm +NewStudio+Eng]+[Subs Rus , ENG]

Reply to topic
 
Author
Message

Враг Нароода ®

Gender: Unknown

Longevity: 7 years

Posts: 495

Reputation: 1 [+] [-]

Враг Нароода · Post 01-May-2021 17:42

[Quote] 

-- -- Тень и кость / Shadow and Bone - (Сезон 1 , Серия 1-8 из 8) - Полный Комплект -- ----Год выпуска: 2021
Выпущено: США, 21 Laps Entertainment, NetFlix
Жанр: Фэнтези, боевик, драма
Продолжительность: 00:52:00 0
Сезон:1
Серия: 1-8
Количество серий в сезоне:8 --Озвучка # 1: Профессиональный Дубляж SDI Media по заказу Netflix- SDI Media - Русский
Озвучка # 2: Профессиональный многоголосый- HDRezka Studio - Русский
Озвучка # 3: Профессиональный многоголосый- LostFilm - Русский
Озвучка # 4: Профессиональный многоголосый- NewStudio - Русский
Озвучка # 5: Профессиональный многоголосый- AlexFilm - Русский
Озвучка # 6: Профессиональный многоголосый- Jaskier - Русский
Озвучка # 7: Профессиональный многоголосый- TVShows - Русский
Озвучка # 8: Профессиональный многоголосый -Английский - Оригинал--

Субтитры :


Субтитры (UTF-8):вшитые
#1 - Русские - Russian (включены по умолчанию)
#2 - Русские- Russian (Forced)
#3- Английские - English (SDH)
#4- Английские - English
#5- Украинские


Внешние:
#1 - Русские - Russian
#2 - Русские- Russian (Forced)
#3- Английские - English (SDH)
#4- Английские - English
#5- Украинские
--Релиз Без Рекламы --MDB 8.0 -Режиссеры:
Майрзи Алмас, Ли Толанд Кригер, Дэн Лью --В ролях: Фредди Картер, Джесси Мей Ли, Арчи Рено, Амита Суман, Кит Янг, Бен Барнс, Саймон Сирс, Джулиан Костов, Даниэль Галлиган, Балаж Медьери -- В мире, разделенном на две части барьером вечной темноты, где сверхъестественные существа питаются человеческой плотью, девушка-солдат обнаруживает в себе невероятную силу, которая может объединить страну. Но против нее строят заговоры опасные силы. Бандиты, воры, убийцы и святые находятся в состоянии войны, и для выживания потребуется больше, чем магия.-- --Качество : WEB-DLRip - HEVC 10bit - 1080p
Формат: MKV
Видео кодек: H265
Видео: 3412 Кбит/сек,1920х872 , (2,2,1),в 25.000 кадр/сек, HEVC (Main10@L5.2@Main)--Аудио Кодек:Аудио Кодек:AC3
Аудио #1: DUB-Rus- SDI Media @DD5.1 AC3, 640 Kbps, 48.0 KHz, 6 ch- SDI Media - Русский
Аудио #2: MVO LostFilm @DD5.1 AC3, 384 Kbps, 48.0 KHz, 6 ch- LostFilm - Русский
Аудио # 3: MVO HDRezka Studio @DD5.1 AC3, 384 Kbps, 48.0 KHz, 6 ch - HDRezka Studio - Русский
Аудио #4: MVO AlexFilm @DD5.1 AC3, 384 Kbps, 48.0 KHz, 6 ch - AlexFilm - Русский
Аудио #5: MVO NewStudio @DD5.1 AC3, 384 Kbps, 48.0 KHz, 6 ch - NewStudio - Русский
Аудио #6: MVO Jaskier @DD5.1 AC3, 384 Kbps, 48.0 KHz, 6 ch - Jaskier - Русский
Аудио #7: MVO TVShows @DD5.1 AC3, 384 Kbps, 48.0 KHz, 6 ch - TVShows - Русский
Аудио #8: English @DD5.1 E-AC3, 768 Kbps, 48.0 KHz, 6 ch- English - Оригинал-

Доп. информация:

Звуковая дорожка сделана путем наложения чистого голоса озвучивателей на центральный канал оригинальной дорожки. Качество идентично звуковой дорожке.
--

Список эпизодов сезона


1 сезон 1 серия - Обжигающая вспышка света - A Searing Burst of Light
1 сезон 2 серия - Все мы для кого-то монстры - We're All Someone's Monster
1 сезон 3 серия - Творение в самом сердце мира - The Making at the Heart of the World
1 сезон 4 серия - Отказаться - Otkazat'sya
1 сезон 5 серия - Обнажи свою сущность - Show Me Who You Are
1 сезон 6 серия - Сердце - это стрела - The Heart Is an Arrow
1 сезон 7 серия - Неморе - The Unsea
1 сезон 8 серия - Ни траура... - No Mourners
--

MediaInfo

Общее
Уникальный идентификатор : 9608111616317550891928452176391109225 (0x73A747A08A7699D8BA60D6A1686FA69)
Полное имя : E:\Baranov\Тень и кость - Shadow and Bone\2021. Shadow.and.Bone.s01_HEVC_DD5.1_N.B_HD_1080_DUB_5xRus_Eng\2021. Shadow.and.Bone.s01e01_HEVC_DD5.1_N.B_HD_1080_DUB_5xRus_Eng.mkv
Формат : Matroska
Версия формата : Version 4
Размер файла : 2,54 Гбайт
Продолжительность : 52 м. 19 с.
Общий поток : 6 959 Кбит/сек
Название фильма : 2021 Shadow and Bone S01E01 @ Nikolai.Baranov & PIRATIYA
Дата кодирования : UTC 2021-05-09 10:32:17
Программа кодирования : mkvmerge v56.1.0 ('My Friend') 64-bit
Библиотека кодирования : libebml v1.4.2 + libmatroska v1.6.4
Видео
Идентификатор : 1
Формат : HEVC
Формат/Информация : High Efficiency Video Coding
Профиль формата : Main 10@L5.2@Main
Идентификатор кодека : V_MPEGH/ISO/HEVC
Продолжительность : 50 м. 45 с.
Битрейт : 3 412 Кбит/сек
Ширина : 1 920 пикселей
Высота : 872 пикселя
Соотношение сторон : 2,2:1
Режим частоты кадров : Постоянный
Частота кадров : 25,000 кадров/сек
Цветовое пространство : YUV
Субдискретизация насыщенности : 4:2:0
Битовая глубина : 10 бит
Бит/(Пиксели*Кадры) : 0.082
Размер потока : 1,21 Гбайт (48%)
Заголовок : 2021. Shadow.and.Bone.s01e01_HEVC_DD5.1_N.B_HD_1080_DUB_5xRus_Eng
Язык : Russian
Default : Да
Forced : Нет
Цветовой диапазон : Full
Основные цвета : BT.709
Характеристики трансфера : BT.709
Коэффициенты матрицы : BT.709
Аудио #1
Идентификатор : 4
Формат : AC-3
Формат/Информация : Audio Coding 3
Коммерческое название : Dolby Digital
Идентификатор кодека : A_AC3
Продолжительность : 50 м. 45 с.
Вид битрейта : Постоянный
Битрейт : 640 Кбит/сек
Каналы : 6 каналов
Channel layout : L R C LFE Ls Rs
Частота : 48,0 КГц
Частота кадров : 31,250 кадров/сек (1536 SPF)
Метод сжатия : С потерями
Размер потока : 232 Мбайт (9%)
Заголовок : DUB-Rus- SDI Media @DD5.1 AC3, 640 Kbps, 48.0 KHz, 6 ch
Язык : Russian
Service kind : Complete Main
Default : Да
Forced : Нет
Аудио #2
Идентификатор : 5
Формат : AC-3
Формат/Информация : Audio Coding 3
Коммерческое название : Dolby Digital
Идентификатор кодека : A_AC3
Продолжительность : 50 м. 45 с.
Вид битрейта : Постоянный
Битрейт : 384 Кбит/сек
Каналы : 6 каналов
Channel layout : L R C LFE Ls Rs
Частота : 48,0 КГц
Частота кадров : 31,250 кадров/сек (1536 SPF)
Метод сжатия : С потерями
Размер потока : 139 Мбайт (5%)
Заголовок : MVO NewStudio @DD5.1 AC3, 384 Kbps, 48.0 KHz, 6 ch
Язык : Russian
Service kind : Complete Main
Default : Нет
Forced : Нет
Аудио #3
Идентификатор : 6
Формат : AC-3
Формат/Информация : Audio Coding 3
Коммерческое название : Dolby Digital
Идентификатор кодека : A_AC3
Продолжительность : 50 м. 45 с.
Вид битрейта : Постоянный
Битрейт : 384 Кбит/сек
Каналы : 6 каналов
Channel layout : L R C LFE Ls Rs
Частота : 48,0 КГц
Частота кадров : 31,250 кадров/сек (1536 SPF)
Метод сжатия : С потерями
Размер потока : 139 Мбайт (5%)
Заголовок : MVO AlexFilm @DD5.1 AC3, 384 Kbps, 48.0 KHz, 6 ch
Язык : Russian
Service kind : Complete Main
Default : Нет
Forced : Нет
Аудио #4
Идентификатор : 7
Формат : AC-3
Формат/Информация : Audio Coding 3
Коммерческое название : Dolby Digital
Идентификатор кодека : A_AC3
Продолжительность : 50 м. 45 с.
Вид битрейта : Постоянный
Битрейт : 384 Кбит/сек
Каналы : 6 каналов
Channel layout : L R C LFE Ls Rs
Частота : 48,0 КГц
Частота кадров : 31,250 кадров/сек (1536 SPF)
Метод сжатия : С потерями
Размер потока : 139 Мбайт (5%)
Заголовок : MVO HDRezka Studio @DD5.1 AC3, 384 Kbps, 48.0 KHz, 6 ch
Язык : Russian
Service kind : Complete Main
Default : Нет
Forced : Нет
Аудио #5
Идентификатор : 8
Формат : AC-3
Формат/Информация : Audio Coding 3
Коммерческое название : Dolby Digital
Идентификатор кодека : A_AC3
Продолжительность : 50 м. 45 с.
Вид битрейта : Постоянный
Битрейт : 384 Кбит/сек
Каналы : 6 каналов
Channel layout : L R C LFE Ls Rs
Частота : 48,0 КГц
Частота кадров : 31,250 кадров/сек (1536 SPF)
Метод сжатия : С потерями
Размер потока : 139 Мбайт (5%)
Заголовок : MVO LostFilm @DD5.1 AC3, 384 Kbps, 48.0 KHz, 6 ch
Язык : Russian
Service kind : Complete Main
Default : Нет
Forced : Нет
Аудио #6
Идентификатор : 9
Формат : E-AC-3 JOC
Формат/Информация : Enhanced AC-3 with Joint Object Coding
Коммерческое название : Dolby Digital Plus with Dolby Atmos
Идентификатор кодека : A_EAC3
Продолжительность : 52 м. 19 с.
Вид битрейта : Постоянный
Битрейт : 768 Кбит/сек
Каналы : 6 каналов
Channel layout : L R C LFE Ls Rs
Частота : 48,0 КГц
Частота кадров : 31,250 кадров/сек (1536 SPF)
Метод сжатия : С потерями
Размер потока : 287 Мбайт (11%)
Заголовок : English @DD5.1 E-AC3, 768 Kbps, 48.0 KHz, 6 ch
Язык : English
Service kind : Complete Main
Default : Нет
Forced : Нет
Complexity index : 16
Number of dynamic objects : 15
Bed channel count : 1 канал
Bed channel configuration : LFE
Аудио #7
Идентификатор : 12
Формат : AC-3
Формат/Информация : Audio Coding 3
Коммерческое название : Dolby Digital
Идентификатор кодека : A_AC3
Продолжительность : 52 м. 19 с.
Вид битрейта : Постоянный
Битрейт : 384 Кбит/сек
Каналы : 6 каналов
Channel layout : L R C LFE Ls Rs
Частота : 48,0 КГц
Частота кадров : 31,250 кадров/сек (1536 SPF)
Метод сжатия : С потерями
Размер потока : 144 Мбайт (6%)
Заголовок : MVO Jaskier @DD5.1 AC3, 384 Kbps, 48.0 KHz, 6 ch
Язык : Russian
Service kind : Complete Main
Default : Нет
Forced : Нет
Аудио #8
Идентификатор : 13
Формат : AC-3
Формат/Информация : Audio Coding 3
Коммерческое название : Dolby Digital
Идентификатор кодека : A_AC3
Продолжительность : 52 м. 19 с.
Вид битрейта : Постоянный
Битрейт : 384 Кбит/сек
Каналы : 6 каналов
Channel layout : L R C LFE Ls Rs
Частота : 48,0 КГц
Частота кадров : 31,250 кадров/сек (1536 SPF)
Метод сжатия : С потерями
Размер потока : 144 Мбайт (6%)
Заголовок : MVO TVShows @DD5.1 AC3, 384 Kbps, 48.0 KHz, 6 ch
Язык : Russian
Service kind : Complete Main
Default : Нет
Forced : Нет
Текст #1
Идентификатор : 2
Формат : UTF-8
Идентификатор кодека : S_TEXT/UTF8
Идентификатор кодека/Информация : UTF-8 Plain Text
Продолжительность : 40 м. 40 с.
Битрейт : 0 бит/сек
Count of elements : 4
Размер потока : 233 байт (0%)
Заголовок : Обжигающая вспышка света-Russian-Forced
Язык : Russian
Default : Да
Forced : Нет
Текст #2
Идентификатор : 3
Формат : UTF-8
Идентификатор кодека : S_TEXT/UTF8
Идентификатор кодека/Информация : UTF-8 Plain Text
Продолжительность : 50 м. 23 с.
Битрейт : 79 бит/сек
Count of elements : 590
Размер потока : 29,4 Кбайт (0%)
Заголовок : Обжигающая вспышка света-Russian
Язык : Russian
Default : Нет
Forced : Нет
Текст #3
Идентификатор : 10
Формат : UTF-8
Идентификатор кодека : S_TEXT/UTF8
Идентификатор кодека/Информация : UTF-8 Plain Text
Продолжительность : 46 м. 6 с.
Битрейт : 62 бит/сек
Count of elements : 673
Размер потока : 21,2 Кбайт (0%)
Заголовок : A Searing Burst of Light-Original - SDH
Язык : English
Default : Нет
Forced : Нет
Текст #4
Идентификатор : 11
Формат : UTF-8
Идентификатор кодека : S_TEXT/UTF8
Идентификатор кодека/Информация : UTF-8 Plain Text
Продолжительность : 50 м. 23 с.
Битрейт : 80 бит/сек
Count of elements : 590
Размер потока : 29,7 Кбайт (0%)
Заголовок : Обжигающая вспышка света-Ukr
Язык : Ukrainian
Default : Нет
Forced : Нет
Меню
00:00:00.000 : ru:Глава 01 / ru:Глава 01 / ru:Глава 01 / ru:Глава 01 / ru:Глава 01 / ru:Глава 01 / ru:Глава 01 / ru:Глава 01 / ru:Глава 01 / ru:Глава 01 / ru:Глава 01 / ru:Глава 01 / ru:Глава 01
--

Скриншоты

----
1 Сезон
--

Как закачать отдельный файл

1. Открыть торрент
2. Снять галки с тех файлов торрента, которые мы не хотим закачивать. Оставляем только на нужных нам файлах (файле).
3. Нажать О.К.
В клиенте utorrent
Инструкция
1) Открыть торрент

2) Снять галки с тех файлов торрента, которые мы не хотим закачивать:
* либо вручную, снимая с каждого файла галку( скрин №1)
* либо, нажав кнопку "Снять метки (Select None)", сняв сразу со всех файлов(скрин №2)
№1

№2

Оставляем только на нужных нам файлах (файле).

3)Нажать О.К
-- -- ----Внимание!! ! 15 .05. 2021. РАЗДАЧА ОБНОВЛЕНА. ДОБАВЛЕНА-8-СЕРИЯ . ФИНАЛ СЕЗОНА . ОБНОВИТЕ ТОРЕНТ ФАЙЛ. ПРИЯТНОГО ПРОСМОТРА . Поблагодарить:
ЯД: 410017546713876
--Релиз от: Nikolai.Baranov & PIRATIYA -- -- -- --Время раздачи : 24/7---
[Profile]  [PM] 
Display posts:    
Reply to topic

Current time is: 21-Sep 12:48

All times are UTC + 2



You cannot post new topics in this forum
You cannot reply to topics in this forum
You cannot edit your posts in this forum
You cannot delete your posts in this forum
You cannot vote in polls in this forum
You cannot attach files in this forum
You cannot download files in this forum