Внешние отмели / Outer Banks (Сезон 1-2 , Серия 1-20 из -20) (Джонас Пейт, Чери Ноулан) [2020 - 2021, Драма, детектив, приключения,HDR-Rip - HEVC - 1080p] [ DUB- Пифагор+LostFilm+Eng]+[Subs Rus , ENG]

Reply to topic
 
Author
Message

Враг Нароода ®

Gender: Unknown

Longevity: 7 years

Posts: 495

Reputation: 1 [+] [-]

Враг Нароода · Post 11-Jun-2021 18:02

[Quote] 

-- -- Внешние отмели / Outer Banks - (Сезон 1- 2, Серия 1-20 из 20) - Полный Комплект -- --Год выпуска: 2020 - 2021
Выпущено: США, Netflix
Жанр: Драма, детектив, приключения
Продолжительность: 00:50:00
Сезон: 1-2
Серия: 1-20
Количество серий в сезоне:20 --Озвучка # 1: Профессиональный Дубляж Пифагор по заказу Netflix- -Пифагор - Русский
Озвучка #2: Профессиональный многоголосый -Английский - - LostFilm- Русский
Озвучка # 3: Профессиональный многоголосый -Английский - Оригинал--

Субтитры :


Субтитры (UTF-8):вшитые
#1 - Русские - Russian (включены по умолчанию)
#2 - Русские - Russian- English (Forced)
#3- Английские - English (SDH)


Внешние:
#1 - Русские - Russian
#2 - Русские - Russian- English (Forced)
#3- Английские - English (SDH)
--Релиз Без Рекламы --MDB 7.6 -Режиссеры:
Джонас Пейт, Чери Ноулан, Валери Уайсс --В ролях: Чейз Стоукс, Мэдлин Клайн, Мэдисон Бэйли, Джонатан Дэвисс, Руди Панкоу, Остин Норт, Чарльз Истен, Дрю Старки, Адина Портер, Каллен Мосс -- Внешние отмели — 320-километровая полоса узких песчаных барьерных островов побережья Северной Каролины, начинающихся у юго-восточного края Вирджиния-Бич восточного побережья США. Именно здесь в разгар летнего сезона, который накрылся медным тазом из-за бушующего урагана, четверо подростков с помощью случайно добытой карты отправляются на поиски огромной партии золота, стоимость которой оценивается в четыреста миллионов долларов.-- --Качество : HDR-Rip - HEVC 10bit - 1080p 1Сезон
Формат: MKV
Видео кодек: H265
Видео: 5312 Кбит/сек,1920х1080 , (19,6),в 23.976 кадр/сек, HEVC (Main10@L4@HDR 10Main )--Аудио Кодек:Аудио Кодек:AC3
Аудио #1: Пифагор @DD5.1 E-AC3, 640 Kbps, 48.0 KHz, 6 ch- Пифагор - Русский
Аудио #3: MVO LostFilm @DD5.11 AC3, 640 Kbps, 48.0 KHz, 6 ch- LostFilm - Русский
Аудио #4: English @DD5.1 E-AC3, 640 Kbps, 48.0 KHz, 6 ch- English - Оригинал--Качество : WEB-DLRip - HEVC - 1080p -2Сезон
Формат: MKV
Видео кодек: H265
Видео: 3683 Кбит/сек,1920х9600 , (2,000),в 25.000 кадр/сек, HEVC (Main@L5.1@Main)--Аудио Кодек:Аудио Кодек:AC3
Аудио #1: Пифагор @DD5.1 E-AC3, 640 Kbps, 48.0 KHz, 6 ch- Пифагор - Русский
Аудио #3: MVO LostFilm @DD5.11 AC3, 640 Kbps, 48.0 KHz, 6 ch- LostFilm - Русский
Аудио #4: English @DD5.1 E-AC3, 768 Kbps, 48.0 KHz, 6 ch- English - Оригинал-- --

Доп. информация:

Звуковая дорожка сделана путем наложения чистого голоса озвучивателей на центральный канал оригинальной дорожки. Качество идентично звуковой дорожке.
--

Список эпизодов сезона

1Сезон
1 сезон 1 серия - Пилот - Pilot
1 сезон 2 серия - Счастливый компас - The Lucky Compass
1 сезон 3 серия - Запретная зона - The Forbidden Zone
1 сезон 4 серия - Шпионские игры - Spy Games
1 сезон 5 серия - Праздник летнего солнцестояния - Midsummers
1 сезон 6 серия - Девятый участок - Parcel 9
The Runway1 сезон 7 серия - Мертвый штиль - Dead Calm
1 сезон 8 серия - Побег - The Runway
1 сезон 9 серия - Колокольня - The Bell Tower
1 сезон 10 серия - Фантом - The Phantom

2Сезон
2 сезон 1 серия - Золото - The Gold
2 сезон 2 серия - Ограбление - The Heist
2 сезон 3 серия - Молитвы - Prayers
2 сезон 4 серия - Возвращение домой - Homecoming
2 сезон 5 серия - Самый темный час - The Darkest Hour
2 сезон 6 серия - Мой выбор - My Druthers
2 сезон 7 серия - Костер - The Bonfire
2 сезон 8 серия - Крест - The Cross
2 сезон 9 серия - Взаперти - Trapped
2 сезон 10 серия - На борту - The Coastal Venture
--

MediaInfo 1Сезон

Общее
Уникальный идентификатор : 162677453993784788137601647633473960692 (0x7A6289B9DD89E11F5194939DD22F7AF4)
Полное имя : F:\Внешние отмели - Outer Banks\Outer.Banks.S01.HDR.1080_HEVC-10bitt_DD5.1_N.B_DUB_2xRus_Eng\Outer.Banks.S01E01.HDR.1080_HEVC_DD5.1_N.B_DUB_2xRus_Eng.mkv
Формат : Matroska
Версия формата : Version 4
Размер файла : 2,70 Гбайт
Продолжительность : 54 м. 13 с.
Общий поток : 7 134 Кбит/сек
Название фильма : 2020 Outer Banks S01E01 @ Nikolai.Baranov & PIRATIYA
Дата кодирования : UTC 2021-06-05 11:44:13
Программа кодирования : mkvmerge v57.0.0 ('Till The End') 64-bit
Библиотека кодирования : libebml v1.4.2 + libmatroska v1.6.4
Видео
Идентификатор : 1
Формат : HEVC
Формат/Информация : High Efficiency Video Coding
Профиль формата : Main 10@L4@Main
HDR format : SMPTE ST 2086, HDR10 compatible
Идентификатор кодека : V_MPEGH/ISO/HEVC
Продолжительность : 53 м. 18 с.
Битрейт : 5 312 Кбит/сек
Ширина : 1 920 пикселей
Высота : 1 080 пикселей
Соотношение сторон : 16:9
Режим частоты кадров : Постоянный
Частота кадров : 23,976 (24000/1001) кадра/сек
Цветовое пространство : YUV
Субдискретизация насыщенности : 4:2:0 (Type 2)
Битовая глубина : 10 бит
Бит/(Пиксели*Кадры) : 0.107
Размер потока : 1,98 Гбайт (73%)
Заголовок : Outer.Banks.S01E01.HDR.1080_HEVC_DD5.1_N.B_DUB_2xRus_Eng
Язык : Russian
Default : Да
Forced : Нет
Цветовой диапазон : Limited
Основные цвета : BT.2020
Характеристики трансфера : PQ
Коэффициенты матрицы : BT.2020 non-constant
Mastering display color primaries : Display P3
Mastering display luminance : min: 0.0001 cd/m2, max: 1000 cd/m2
Maximum Content Light Level : 1144 cd/m2
Maximum Frame-Average Light Level : 332 cd/m2
Аудио #1
Идентификатор : 4
Формат : E-AC-3
Формат/Информация : Enhanced AC-3
Коммерческое название : Dolby Digital Plus
Идентификатор кодека : A_EAC3
Продолжительность : 54 м. 13 с.
Вид битрейта : Постоянный
Битрейт : 640 Кбит/сек
Каналы : 6 каналов
Channel layout : L R C LFE Ls Rs
Частота : 48,0 КГц
Частота кадров : 31,250 кадров/сек (1536 SPF)
Метод сжатия : С потерями
Размер потока : 248 Мбайт (9%)
Заголовок : DUB-Rus- Пифагор @DD5.1 E-AC3, 640 Kbps, 48.0 KHz, 6 ch
Язык : Russian
Service kind : Complete Main
Default : Да
Forced : Нет
Аудио #2
Идентификатор : 5
Формат : AC-3
Формат/Информация : Audio Coding 3
Коммерческое название : Dolby Digital
Идентификатор кодека : A_AC3
Продолжительность : 53 м. 18 с.
Вид битрейта : Постоянный
Битрейт : 640 Кбит/сек
Каналы : 6 каналов
Channel layout : L R C LFE Ls Rs
Частота : 48,0 КГц
Частота кадров : 31,250 кадров/сек (1536 SPF)
Метод сжатия : С потерями
Размер потока : 244 Мбайт (9%)
Заголовок : MVO LostFilm @DD5.1 AC3, 640 Kbps, 48.0 KHz, 6 ch
Язык : Russian
Service kind : Complete Main
Default : Нет
Forced : Нет
Аудио #3
Идентификатор : 6
Формат : E-AC-3
Формат/Информация : Enhanced AC-3
Коммерческое название : Dolby Digital Plus
Идентификатор кодека : A_EAC3
Продолжительность : 54 м. 13 с.
Вид битрейта : Постоянный
Битрейт : 640 Кбит/сек
Каналы : 6 каналов
Channel layout : L R C LFE Ls Rs
Частота : 48,0 КГц
Частота кадров : 31,250 кадров/сек (1536 SPF)
Метод сжатия : С потерями
Размер потока : 248 Мбайт (9%)
Заголовок : English @DD5.1 E-AC3, 640 Kbps, 48.0 KHz, 6 ch
Язык : English
Service kind : Complete Main
Default : Нет
Forced : Нет
Текст #1
Идентификатор : 2
Формат : UTF-8
Идентификатор кодека : S_TEXT/UTF8
Идентификатор кодека/Информация : UTF-8 Plain Text
Продолжительность : 53 м. 0 с.
Битрейт : 1 бит/сек
Count of elements : 8
Размер потока : 429 байт (0%)
Заголовок : Пилот-Russian-Forced
Язык : Russian
Default : Да
Forced : Нет
Текст #2
Идентификатор : 3
Формат : UTF-8
Идентификатор кодека : S_TEXT/UTF8
Идентификатор кодека/Информация : UTF-8 Plain Text
Продолжительность : 53 м. 0 с.
Битрейт : 111 бит/сек
Count of elements : 892
Размер потока : 43,3 Кбайт (0%)
Заголовок : Пилот-Russian
Язык : Russian
Default : Нет
Forced : Нет
Текст #3
Идентификатор : 7
Формат : UTF-8
Идентификатор кодека : S_TEXT/UTF8
Идентификатор кодека/Информация : UTF-8 Plain Text
Продолжительность : 51 м. 4 с.
Битрейт : 107 бит/сек
Count of elements : 1030
Размер потока : 40,2 Кбайт (0%)
Заголовок : Pilot-English - SDH
Язык : English
Default : Нет
Forced : Нет
Меню
00:00:00.000 : ru:Глава 01 / ru:Глава 01 / ru:Глава 01 / ru:Глава 01 / ru:Глава 01 / ru:Глава 01 / ru:Глава 01
--

MediaInfo 2Сезон

Общее
Уникальный идентификатор : 211851270731304051416122211899410613334 (0x9F611213389963736562E305B8120456)
Полное имя : F:\Внешние отмели - Outer Banks\Outer.Banks.S01-S02.HDR.1080_HEVC-10bitt_DD5.1_N.B_DUB_2xRus_Eng\S02\Outer.Banks.S02E01_HEVC_DD5.1_N.B_HD_1080_DUB_2xRus_Eng.mkv
Формат : Matroska
Версия формата : Version 4
Размер файла : 1,97 Гбайт
Продолжительность : 51 м. 9 с.
Общий поток : 5 523 Кбит/сек
Название фильма : 2021 Outer Banks S02E01 @ Nikolai.Baranov & PIRATIYA
Дата кодирования : UTC 2021-08-02 07:28:18
Программа кодирования : mkvmerge v60.0.0 ('Are We Copies?') 64-bit
Библиотека кодирования : libebml v1.4.2 + libmatroska v1.6.4
Обложка : Yes
Attachments : Cover_Outer.Banks.jpg
Видео
Идентификатор : 1
Формат : HEVC
Формат/Информация : High Efficiency Video Coding
Профиль формата : Main@L5.1@Main
Идентификатор кодека : V_MPEGH/ISO/HEVC
Продолжительность : 49 м. 28 с.
Битрейт : 3 633 Кбит/сек
Ширина : 1 920 пикселей
Высота : 960 пикселей
Соотношение сторон : 2,000
Режим частоты кадров : Постоянный
Частота кадров : 25,000 кадров/сек
Цветовое пространство : YUV
Субдискретизация насыщенности : 4:2:0
Битовая глубина : 8 бит
Бит/(Пиксели*Кадры) : 0.079
Размер потока : 1,26 Гбайт (64%)
Заголовок : Outer.Banks.S02E01_HEVC_DD5.1_N.B_HD_1080_DUB_2xRus_Eng
Язык : Russian
Default : Да
Forced : Нет
Цветовой диапазон : Full
Основные цвета : BT.709
Характеристики трансфера : BT.709
Коэффициенты матрицы : BT.709
Аудио #1
Идентификатор : 2
Формат : AC-3
Формат/Информация : Audio Coding 3
Коммерческое название : Dolby Digital
Идентификатор кодека : A_AC3
Продолжительность : 49 м. 28 с.
Вид битрейта : Постоянный
Битрейт : 640 Кбит/сек
Каналы : 6 каналов
Channel layout : L R C LFE Ls Rs
Частота : 48,0 КГц
Частота кадров : 31,250 кадров/сек (1536 SPF)
Метод сжатия : С потерями
Размер потока : 226 Мбайт (11%)
Заголовок : DUB-Rus- Пифагор @DD5.1 E-AC3, 640 Kbps, 48.0 KHz, 6 ch
Язык : Russian
Service kind : Complete Main
Default : Да
Forced : Нет
Аудио #2
Идентификатор : 3
Формат : E-AC-3 JOC
Формат/Информация : Enhanced AC-3 with Joint Object Coding
Коммерческое название : Dolby Digital Plus with Dolby Atmos
Идентификатор кодека : A_EAC3
Продолжительность : 51 м. 9 с.
Вид битрейта : Постоянный
Битрейт : 768 Кбит/сек
Каналы : 6 каналов
Channel layout : L R C LFE Ls Rs
Частота : 48,0 КГц
Частота кадров : 31,250 кадров/сек (1536 SPF)
Метод сжатия : С потерями
Размер потока : 281 Мбайт (14%)
Заголовок : English @DD5.1 E-AC3, 768 Kbps, 48.0 KHz, 6 ch
Язык : English
Service kind : Complete Main
Default : Да
Forced : Нет
Complexity index : 16
Number of dynamic objects : 15
Bed channel count : 1 канал
Bed channel configuration : LFE
Аудио #3
Идентификатор : 4
Формат : AC-3
Формат/Информация : Audio Coding 3
Коммерческое название : Dolby Digital
Идентификатор кодека : A_AC3
Продолжительность : 49 м. 28 с.
Вид битрейта : Постоянный
Битрейт : 640 Кбит/сек
Каналы : 6 каналов
Channel layout : L R C LFE Ls Rs
Частота : 48,0 КГц
Частота кадров : 31,250 кадров/сек (1536 SPF)
Метод сжатия : С потерями
Размер потока : 226 Мбайт (11%)
Заголовок : MVO LostFilm @DD5.1 AC3, 640 Kbps, 48.0 KHz, 6 ch
Язык : Russian
Service kind : Complete Main
Default : Да
Forced : Нет
Текст #1
Идентификатор : 5
Формат : UTF-8
Идентификатор кодека : S_TEXT/UTF8
Идентификатор кодека/Информация : UTF-8 Plain Text
Продолжительность : 49 м. 21 с.
Битрейт : 2 бит/сек
Count of elements : 20
Размер потока : 876 байт (0%)
Заголовок : Золото-Russian-Forced
Язык : Russian
Default : Да
Forced : Нет
Текст #2
Идентификатор : 6
Формат : UTF-8
Идентификатор кодека : S_TEXT/UTF8
Идентификатор кодека/Информация : UTF-8 Plain Text
Продолжительность : 49 м. 10 с.
Битрейт : 92 бит/сек
Count of elements : 708
Размер потока : 33,2 Кбайт (0%)
Заголовок : Золото-Russian
Язык : Russian
Default : Да
Forced : Нет
Текст #3
Идентификатор : 7
Формат : UTF-8
Идентификатор кодека : S_TEXT/UTF8
Идентификатор кодека/Информация : UTF-8 Plain Text
Продолжительность : 48 м. 55 с.
Битрейт : 79 бит/сек
Count of elements : 823
Размер потока : 28,4 Кбайт (0%)
Заголовок : The Gold-English - SDH
Язык : English
Default : Да
Forced : Нет
Текст #4
Идентификатор : 8
Формат : UTF-8
Идентификатор кодека : S_TEXT/UTF8
Идентификатор кодека/Информация : UTF-8 Plain Text
Продолжительность : 49 м. 10 с.
Битрейт : 85 бит/сек
Count of elements : 713
Размер потока : 30,9 Кбайт (0%)
Заголовок : Золото-Ukr
Язык : Ukrainian
Default : Да
Forced : Нет
Меню
00:00:00.000 : ru:Глава 01 / ru:Глава 01 / ru:Глава 01 / ru:Глава 01 / ru:Глава 01 / ru:Глава 01 / ru:Глава 01 / ru:Глава 01
-- ----
1 Сезон
--
2 Сезон
--

Как закачать отдельный файл

1. Открыть торрент
2. Снять галки с тех файлов торрента, которые мы не хотим закачивать. Оставляем только на нужных нам файлах (файле).
3. Нажать О.К.
В клиенте utorrent
Инструкция
1) Открыть торрент

2) Снять галки с тех файлов торрента, которые мы не хотим закачивать:
* либо вручную, снимая с каждого файла галку( скрин №1)
* либо, нажав кнопку "Снять метки (Select None)", сняв сразу со всех файлов(скрин №2)
№1

№2

Оставляем только на нужных нам файлах (файле).

3)Нажать О.К
-- -- ----Внимание!! ! 30 . 08. 2021. РАЗДАЧА ОБНОВЛЕНА. ДОБАВЛЕНА-9-10-СЕРИЯ- ФИНАЛ -2Сезона . . ОБНОВИТЕ ТОРЕНТ ФАЙЛ. ПРИЯТНОГО ПРОСМОТРА . Поблагодарить:
ЯД: 410017546713876
--Релиз от: Nikolai.Baranov & PIRATIYA -- -- -- --Время раздачи : 24/7---
[Profile]  [PM] 
Display posts:    
Reply to topic

Current time is: 20-Sep 12:45

All times are UTC + 2



You cannot post new topics in this forum
You cannot reply to topics in this forum
You cannot edit your posts in this forum
You cannot delete your posts in this forum
You cannot vote in polls in this forum
You cannot attach files in this forum
You cannot download files in this forum