Локи / Loki (Сезон 1 , Серия 1-6 из 6) (Кейт Херрон) [2021,Фантастика, фэнтези, боевик,WEB-DLRip - HEVC - 1080p] [ LostFilm +HDRezka +AlexFilm +TVShows+ Ukr +Eng]+[Subs Rus , ENG]

Reply to topic
 
Author
Message

Враг Нароода ®

Gender: Unknown

Longevity: 7 years

Posts: 495

Reputation: 1 [+] [-]

Враг Нароода · Post 20-Jun-2021 13:40

[Quote] 

-- -- Локи / Loki - (Сезон 1- , Серия 1- 6 из 6) - Полный Комплект -- --Год выпуска: 2021
Выпущено: США, Marvel Studios
Жанр: Фантастика, фэнтези, боевик, приключения, супергерой, комикс
Продолжительность: 00:52:00
Сезон: 1
Серия: 1-6
Количество серий в сезоне: 6 --Озвучка #1: Профессиональный многоголосый -Русский - - LostFilm- Русский
Озвучка #2: Профессиональный многоголосый -Русский - - HDRezka Studio - Русский
Озвучка #3: Профессиональный многоголосый -Русский - - AlexFilm - Русский
Озвучка #4: Профессиональный многоголосый --Русский - - TVShows - Русский
Озвучка #5: Профессиональный многоголосый --Русский - - NewComers - Русский
Озвучка # 6: Профессиональный Дубляж Украинский- - Цікава ідея - Украинский
Озвучка # 7: Профессиональный многоголосый -Английский - Оригинал--

Субтитры :


Субтитры (UTF-8):вшитые
#1 - Русские - Russian (включены по умолчанию)
#2 - Русские - Russian- (Forced)
#3 - Русские - Russian- Где тексты, Лебовски?
#4 - Русские - Russian- Phys-Kids
#5 - Русские - Russian- FOCS
#6- Английские - English (SDH)


Внешние:
#1 - Русские - Russian
#2 - Русские - Russian- (Forced)
#3 - Русские - Russian- Где тексты, Лебовски?
#4 - Русские - Russian- Phys-Kids
#5 - Русские - Russian- FOCS
#6- Английские - English (SDH)
--Релиз Без Рекламы --MDB 9.1 --Режиссеры: Кейт Херрон --В ролях: Том Хиддлстон, Софи Ди Мартино, Ричард Э. Грант, Гугу Мбата-Роу, Вунми Моссаку, Оуэн Уилсон, Эрика Коулмэн, Саша Лэйн, Джон Ливайн, Люсиус Бастон мл. -- Локи попадает в таинственную организацию «Управление временными изменениями» после того, как он украл Тессеракт, и путешествует во времени, меняя историю.-- --Качество : WEB-DLRip - HEVC 10bit - 1080p
Формат: MKV
Видео кодек: H265
Видео: 2332 Кбит/сек,1920х1080 , (19,6),в 24.000 кадр/сек, HEVC (Main10@L4@Main )--Аудио Кодек:Аудио Кодек:AC3
Аудио #1 : MVO LostFilm @DD5.1 E-AC3, 640 Kbps, 48.0 KHz, 6 ch - LostFilm - Русский
Аудио #2 : MVO HDRezka Studio @DD5.1 AC3, 448 Kbps, 48.0 KHz, 6 ch - HDRezka Studio - Русский
Аудио #3 : MVO AlexFilm @DD5.1 AC3, 384 Kbps, 48.0 KHz, 6 ch - AlexFilm - Русский
Аудио #4 : MVO TVShows @DD5.1 AC3, 384 Kbps, 48.0 KHz, 6 ch- TVShows - Русский
Аудио #5 : MVO NewComers @DD5.1 AC3, 384 Kbps, 48.0 KHz, 6 ch- NewComers - Русский
Аудио #6: Ukr MVO Cikava Ideya @DD5.1 AC3, 384 Kbps, 48.0 KHz, 6 ch - - Cikava Ideya - Украинский
Аудио #7: English @DD5.1 E-AC3, 768 Kbps, 48.0 KHz, 6 ch - - English - Оригинал-- --

Доп. информация:

Звуковая дорожка сделана путем наложения чистого голоса озвучивателей на центральный канал оригинальной дорожки. Качество идентично звуковой дорожке.
--

Список эпизодов сезона


1 сезон 1 серия - Славная миссия - Glorious Purpose
1 сезон 2 серия - Вариант - The Variant
1 сезон 3 серия - Ламентис - Lamentis
1 сезон 4 серия - Смежное событие - The Nexus Event
1 сезон 6 серия - На все времена. Всегда - For All Time. Always.
--

MediaInfo

Общее
Уникальный идентификатор : 77353053799908069549211539885299753842 (0x3A31A800ACDF43127904EB0B05B26372)
Полное имя : D:\Локи - Loki\2021_Loki_S01_HEVC- 10Bit_DD5.1_N.B_HD_1080_4xRus_Ukr_Eng\Loki_S01E01_HEVC- 10Bit_DD5.1_N.B_HD_1080_4xRus_Ukr_Eng.mkv
Формат : Matroska
Версия формата : Version 4
Размер файла : 2,06 Гбайт
Продолжительность : 51 м. 30 с.
Общий поток : 5 720 Кбит/сек
Название фильма : 2021 Loki S01E01 @ Nikolai.Baranov & PIRATIYA
Дата кодирования : UTC 2021-07-03 12:18:30
Программа кодирования : mkvmerge v58.0.0 ('Supper's Ready') 64-bit
Библиотека кодирования : libebml v1.4.2 + libmatroska v1.6.4
Видео
Идентификатор : 1
Формат : HEVC
Формат/Информация : High Efficiency Video Coding
Профиль формата : Main 10@L4@Main
Идентификатор кодека : V_MPEGH/ISO/HEVC
Продолжительность : 51 м. 30 с.
Битрейт : 2 332 Кбит/сек
Ширина : 1 920 пикселей
Высота : 1 080 пикселей
Соотношение сторон : 16:9
Режим частоты кадров : Постоянный
Частота кадров : 24,000 кадра/сек
Цветовое пространство : YUV
Субдискретизация насыщенности : 4:2:0
Битовая глубина : 10 бит
Бит/(Пиксели*Кадры) : 0.047
Размер потока : 859 Мбайт (41%)
Заголовок : Loki_S01E01_HEVC- 10Bit_DD5.1_N.B_HD_1080_4xRus_Ukr_Eng
Библиотека кодирования : x265 3.5+9-bf91444e0:[Windows][MSVC 1928][64 bit] 10bit
Настройки программы : cpuid=1111039 / frame-threads=3 / numa-pools=8 / wpp / no-pmode / no-pme / no-psnr / no-ssim / log-level=2 / input-csp=1 / input-res=1920x1080 / interlace=0 / total-frames=1416 / level-idc=0 / high-tier=1 / uhd-bd=0 / ref=4 / no-allow-non-conformance / no-repeat-headers / annexb / no-aud / no-eob / no-eos / no-hrd / info / hash=0 / no-temporal-layers / open-gop / min-keyint=24 / keyint=240 / gop-lookahead=0 / bframes=16 / b-adapt=2 / b-pyramid / bframe-bias=0 / rc-lookahead=90 / lookahead-slices=4 / scenecut=40 / hist-scenecut=0 / radl=0 / no-splice / no-intra-refresh / ctu=64 / min-cu-size=8 / no-rect / no-amp / max-tu-size=32 / tu-inter-depth=4 / tu-intra-depth=4 / limit-tu=0 / rdoq-level=2 / dynamic-rd=0.00 / no-ssim-rd / signhide / no-tskip / nr-intra=0 / nr-inter=0 / no-constrained-intra / no-strong-intra-smoothing / max-merge=5 / limit-refs=0 / limit-modes / me=3 / subme=7 / merange=92 / temporal-mvp / no-frame-dup / no-hme / weightp / no-weightb / no-analyze-src-pics / deblock=0:0 / sao / no-sao-non-deblock / rd=4 / selective-sao=4 / no-early-skip / rskip / no-fast-intra / no-tskip-fast / no-cu-lossless / no-b-intra / no-splitrd-skip / rdpenalty=0 / psy-rd=1.10 / psy-rdoq=1.00 / no-rd-refine / no-lossless / cbqpoffs=0 / crqpoffs=0 / rc=crf / crf=16.6 / qcomp=0.60 / qpstep=4 / stats-write=0 / stats-read=0 / ipratio=1.40 / pbratio=1.30 / aq-mode=4 / aq-strength=1.00 / cutree / zone-count=0 / no-strict-cbr / qg-size=32 / no-rc-grain / qpmax=69 / qpmin=0 / no-const-vbv / sar=1 / overscan=0 / videoformat=5 / range=0 / colorprim=2 / transfer=2 / colormatrix=2 / chromaloc=0 / display-window=0 / cll=0,0 / min-luma=0 / max-luma=1023 / log2-max-poc-lsb=8 / vui-timing-info / vui-hrd-info / slices=1 / no-opt-qp-pps / no-opt-ref-list-length-pps / no-multi-pass-opt-rps / scenecut-bias=0.05 / hist-threshold=0.03 / no-opt-cu-delta-qp / no-aq-motion / no-hdr10 / no-hdr10-opt / no-dhdr10-opt / no-idr-recovery-sei / analysis-reuse-level=0 / analysis-save-reuse-level=0 / analysis-load-reuse-level=0 / scale-factor=0 / refine-intra=0 / refine-inter=0 / refine-mv=1 / refine-ctu-distortion=0 / no-limit-sao / ctu-info=0 / no-lowpass-dct / refine-analysis-type=0 / copy-pic=1 / max-ausize-factor=1.0 / no-dynamic-refine / no-single-sei / no-hevc-aq / no-svt / no-field / qp-adaptation-range=1.00 / scenecut-aware-qp=0conformance-window-offsets / right=0 / bottom=0 / decoder-max-rate=0 / no-vbv-live-multi-pass
Язык : Russian
Default : Да
Forced : Нет
Аудио #1
Идентификатор : 6
Формат : AC-3
Формат/Информация : Audio Coding 3
Коммерческое название : Dolby Digital
Идентификатор кодека : A_AC3
Продолжительность : 51 м. 30 с.
Вид битрейта : Постоянный
Битрейт : 640 Кбит/сек
Каналы : 6 каналов
Channel layout : L R C LFE Ls Rs
Частота : 48,0 КГц
Частота кадров : 31,250 кадров/сек (1536 SPF)
Метод сжатия : С потерями
Размер потока : 236 Мбайт (11%)
Заголовок : MVO LostFilm @DD5.1 E-AC3, 640 Kbps, 48.0 KHz, 6 ch
Язык : Russian
Service kind : Complete Main
Default : Да
Forced : Нет
Аудио #2
Идентификатор : 7
Формат : AC-3
Формат/Информация : Audio Coding 3
Коммерческое название : Dolby Digital
Идентификатор кодека : A_AC3
Продолжительность : 51 м. 30 с.
Вид битрейта : Постоянный
Битрейт : 448 Кбит/сек
Каналы : 6 каналов
Channel layout : L R C LFE Ls Rs
Частота : 48,0 КГц
Частота кадров : 31,250 кадров/сек (1536 SPF)
Метод сжатия : С потерями
Размер потока : 165 Мбайт (8%)
Заголовок : MVO HDRezka Studio @DD5.1 AC3, 448 Kbps, 48.0 KHz, 6 ch
Язык : Russian
Service kind : Complete Main
Default : Да
Forced : Нет
Аудио #3
Идентификатор : 8
Формат : AC-3
Формат/Информация : Audio Coding 3
Коммерческое название : Dolby Digital
Идентификатор кодека : A_AC3
Продолжительность : 51 м. 30 с.
Вид битрейта : Постоянный
Битрейт : 384 Кбит/сек
Каналы : 6 каналов
Channel layout : L R C LFE Ls Rs
Частота : 48,0 КГц
Частота кадров : 31,250 кадров/сек (1536 SPF)
Метод сжатия : С потерями
Размер потока : 141 Мбайт (7%)
Заголовок : MVO AlexFilm @DD5.1 AC3, 384 Kbps, 48.0 KHz, 6 ch
Язык : Russian
Service kind : Complete Main
Default : Нет
Forced : Нет
Аудио #4
Идентификатор : 9
Формат : AC-3
Формат/Информация : Audio Coding 3
Коммерческое название : Dolby Digital
Идентификатор кодека : A_AC3
Продолжительность : 51 м. 30 с.
Вид битрейта : Постоянный
Битрейт : 384 Кбит/сек
Каналы : 6 каналов
Channel layout : L R C LFE Ls Rs
Частота : 48,0 КГц
Частота кадров : 31,250 кадров/сек (1536 SPF)
Метод сжатия : С потерями
Размер потока : 141 Мбайт (7%)
Заголовок : MVO TVShows @DD5.1 AC3, 384 Kbps, 48.0 KHz, 6 ch
Язык : Russian
Service kind : Complete Main
Default : Нет
Forced : Нет
Аудио #5
Идентификатор : 10
Формат : AC-3
Формат/Информация : Audio Coding 3
Коммерческое название : Dolby Digital
Идентификатор кодека : A_AC3
Продолжительность : 51 м. 30 с.
Вид битрейта : Постоянный
Битрейт : 384 Кбит/сек
Каналы : 6 каналов
Channel layout : L R C LFE Ls Rs
Частота : 48,0 КГц
Частота кадров : 31,250 кадров/сек (1536 SPF)
Метод сжатия : С потерями
Размер потока : 141 Мбайт (7%)
Заголовок : Ukr MVO_Cikava Ideya @DD5.1 AC3, 384 Kbps, 48.0 KHz, 6 ch
Язык : Ukrainian
Service kind : Complete Main
Default : Да
Forced : Нет
Аудио #6
Идентификатор : 11
Формат : E-AC-3 JOC
Формат/Информация : Enhanced AC-3 with Joint Object Coding
Коммерческое название : Dolby Digital Plus with Dolby Atmos
Настройки формата : Dolby Surround EX
Идентификатор кодека : A_EAC3
Продолжительность : 51 м. 30 с.
Вид битрейта : Постоянный
Битрейт : 768 Кбит/сек
Каналы : 6 каналов
Channel layout : L R C LFE Ls Rs
Частота : 48,0 КГц
Частота кадров : 31,250 кадров/сек (1536 SPF)
Метод сжатия : С потерями
Размер потока : 283 Мбайт (13%)
Заголовок : English @DD5.1 E-AC3, 768 Kbps, 48.0 KHz, 6 ch
Язык : English
Service kind : Complete Main
Default : Нет
Forced : Нет
Complexity index : 16
Number of dynamic objects : 15
Bed channel count : 1 канал
Bed channel configuration : LFE
Аудио #7
Идентификатор : 13
Формат : AC-3
Формат/Информация : Audio Coding 3
Коммерческое название : Dolby Digital
Идентификатор кодека : A_AC3
Продолжительность : 50 м. 24 с.
Вид битрейта : Постоянный
Битрейт : 384 Кбит/сек
Каналы : 6 каналов
Channel layout : L R C LFE Ls Rs
Частота : 48,0 КГц
Частота кадров : 31,250 кадров/сек (1536 SPF)
Метод сжатия : С потерями
Размер потока : 138 Мбайт (7%)
Заголовок : MVO NewComers @DD5.1 AC3, 384 Kbps, 48.0 KHz, 6 ch
Язык : Russian
Service kind : Complete Main
Default : Да
Forced : Нет
Текст #1
Идентификатор : 2
Формат : UTF-8
Идентификатор кодека : S_TEXT/UTF8
Идентификатор кодека/Информация : UTF-8 Plain Text
Продолжительность : 47 м. 43 с.
Битрейт : 1 бит/сек
Count of elements : 15
Размер потока : 473 байт (0%)
Заголовок : Славная миссия-Russian-Forced
Язык : Russian
Default : Да
Forced : Нет
Текст #2
Идентификатор : 3
Формат : UTF-8
Идентификатор кодека : S_TEXT/UTF8
Идентификатор кодека/Информация : UTF-8 Plain Text
Продолжительность : 50 м. 13 с.
Битрейт : 84 бит/сек
Count of elements : 585
Размер потока : 31,2 Кбайт (0%)
Заголовок : Славная миссия-Где тексты, Лебовски
Язык : Russian
Default : Да
Forced : Нет
Текст #3
Идентификатор : 4
Формат : UTF-8
Идентификатор кодека : S_TEXT/UTF8
Идентификатор кодека/Информация : UTF-8 Plain Text
Продолжительность : 50 м. 12 с.
Битрейт : 83 бит/сек
Count of elements : 586
Размер потока : 30,5 Кбайт (0%)
Заголовок : Славная миссия-PhysKids
Язык : Russian
Default : Да
Forced : Нет
Текст #4
Идентификатор : 5
Формат : UTF-8
Идентификатор кодека : S_TEXT/UTF8
Идентификатор кодека/Информация : UTF-8 Plain Text
Продолжительность : 50 м. 5 с.
Битрейт : 88 бит/сек
Count of elements : 563
Размер потока : 32,6 Кбайт (0%)
Заголовок : Славная миссия-FOCS
Язык : Russian
Default : Да
Forced : Нет
Текст #5
Идентификатор : 12
Формат : UTF-8
Идентификатор кодека : S_TEXT/UTF8
Идентификатор кодека/Информация : UTF-8 Plain Text
Продолжительность : 50 м. 5 с.
Битрейт : 55 бит/сек
Count of elements : 688
Размер потока : 20,4 Кбайт (0%)
Заголовок : Glorious Purpose-English - SDH
Язык : English
Default : Да
Forced : Нет
Меню
00:00:00.000 : ru:Глава 01 / ru:Глава 01 / ru:Глава 01 / ru:Глава 01 / ru:Глава 01 / ru:Глава 01 / ru:Глава 01 / ru:Глава 01 / ru:Глава 01 / ru:Глава 01 / ru:Глава 01 / ru:Глава 01 / ru:Глава 01
--

Скриншоты

----
1 Сезон
--

Как закачать отдельный файл

1. Открыть торрент
2. Снять галки с тех файлов торрента, которые мы не хотим закачивать. Оставляем только на нужных нам файлах (файле).
3. Нажать О.К.
В клиенте utorrent
Инструкция
1) Открыть торрент

2) Снять галки с тех файлов торрента, которые мы не хотим закачивать:
* либо вручную, снимая с каждого файла галку( скрин №1)
* либо, нажав кнопку "Снять метки (Select None)", сняв сразу со всех файлов(скрин №2)
№1

№2

Оставляем только на нужных нам файлах (файле).

3)Нажать О.К
-- -- ----Внимание!! ! 16 . 07 . 2021. РАЗДАЧА ОБНОВЛЕНА. ДОБАВЛЕНА-6-СЕРИЯ. ФИНАЛ СЕЗОНА . ОБНОВИТЕ ТОРЕНТ ФАЙЛ. ПРИЯТНОГО ПРОСМОТРА . Поблагодарить:
ЯД: 410017546713876
--Релиз от: Nikolai.Baranov & PIRATIYA -- -- -- --Время раздачи : 24/7---
[Profile]  [PM] 
Display posts:    
Reply to topic

Current time is: 21-Sep 13:34

All times are UTC + 2



You cannot post new topics in this forum
You cannot reply to topics in this forum
You cannot edit your posts in this forum
You cannot delete your posts in this forum
You cannot vote in polls in this forum
You cannot attach files in this forum
You cannot download files in this forum