Сокол и Зимний солдат / The Falcon and the Winter Soldier (Сезон 1 , Серия 1-6 из 6) ( Кари Скогланд) [2021,Фантастика, супергерой,WEB-DLRip - HEVC - 1080p] [ LostFilm + NewStudio +AlexFilm +TVShows+Eng]+[Subs Rus , ENG]

Reply to topic
 
Author
Message

Враг Нароода ®

Gender: Unknown

Longevity: 7 years

Posts: 495

Reputation: 1 [+] [-]

Враг Нароода · Post 23-Jul-2021 13:44

[Quote] 

-- -- Сокол и Зимний солдат / The Falcon and the Winter Soldier - (Сезон 1- , Серия 1- 6 из 6) - Полный Комплект -- --Год выпуска: 2021
Выпущено: США, Marvel Studios
Жанр: Фантастика, боевик, драма, приключения, комикс, супергерой
Продолжительность: 00:47:00
Сезон: 1
Серия: 1-6
Количество серий в сезоне: 6 --Озвучка #1: Профессиональный многоголосый -Русский - - LostFilm- Русский
Озвучка #2: Профессиональный многоголосый -Русский - - NewStudio - Русский
Озвучка #3: Профессиональный многоголосый -Русский - - AlexFilm - Русский
Озвучка #4: Профессиональный многоголосый --Русский - - TVShows - Русский
Озвучка # 5: Профессиональный многоголосый -Английский - Оригинал--

Субтитры :


Субтитры (UTF-8):вшитые
#1 - Русские - Russian (включены по умолчанию)
#2 - Русские - Russian- (Forced)
#3 - Русские - Russian- Где тексты, Лебовски?
#4 - Русские - Russian- FOCS
#5- Английские - English (SDH)


Внешние:
#1 - Русские - Russian
#2 - Русские - Russian- (Forced)
#3 - Русские - Russian- Где тексты, Лебовски?
#4 - Русские - Russian- FOCS
#5- Английские - English (SDH)
--Релиз Без Рекламы --MDB 7.4 --Режиссеры: Кари Скогланд --В ролях: Энтони Маки, Себастьян Стэн, Даниэль Брюль, Десмонд Чайм, Джон Геттье, Мики Исикава, Эрин Келлиман, Эдеперо Одуйе, Уайатт Расселл, Эмили ВанКэмп -- Сэм Уилсон примерит костюм нового Капитана Америка и попытается справиться с миссией, возложенной на него Стивом Роджерсом. Баки, в свою очередь, готов вновь стать частью общества и поближе познакомиться со всем, что предлагает современный мир.-- --Качество : WEB-DLRip - HEVC 10bit - 1080p
Формат: MKV
Видео кодек: H265
Видео: 2981 Кбит/сек,1920х804 , (2.40.1),в 24.000 кадр/сек, HEVC (Main10@L4@Main )--Аудио Кодек:Аудио Кодек:AC3
Аудио #1 : MVO LostFilm @DD5.1 E-AC3, 640 Kbps, 48.0 KHz, 6 ch - LostFilm - Русский
Аудио #2 : MVO NewStudio @DD5.1 AC3, 384 Kbps, 48.0 KHz, 6 ch - NewStudio - Русский
Аудио #3 : MVO AlexFilm @DD5.1 AC3, 384 Kbps, 48.0 KHz, 6 ch - AlexFilm - Русский
Аудио #4 : MVO TVShows @DD5.1 AC3, 384 Kbps, 48.0 KHz, 6 ch- TVShows - Русский
Аудиo #5: English @DD5.1 E-AC3, 768 Kbps, 48.0 KHz, 6 ch - - English - Оригинал-- --

Доп. информация:

Звуковая дорожка сделана путем наложения чистого голоса озвучивателей на центральный канал оригинальной дорожки. Качество идентично звуковой дорожке.
--

Список эпизодов сезона


01. New World Order / Новый мировой порядок
02. The Star Spangled Man / Мужик, усеянный звёздами
03. Power Broker / Пауэр Брокер
04. The Whole World Is Watching / На глазах у всего мира
05. Truth / Правда
06. One World, One People / Один мир, один народ
--

MediaInfo

Общее
Уникальный идентификатор : 284909986865187249576291391714831780726 (0xD657AAE251D4A87EAB3264C3B2AA4B76)
Полное имя : F:\Сокол и Зимний Солдат\2021.The.Falcon and.the.Winter.Soldier.S01_HEVC- 10Bit_DD5.1_N.B_HD_1080_4xRus_Eng\The.Falcon.and.The.Winter.Soldier_S01E01_HEVC_DD5.1_N.B_HD_1080_4xRus_Eng.mkv
Формат : Matroska
Версия формата : Version 4
Размер файла : 1,83 Гбайт
Продолжительность : 47 м. 16 с.
Общий поток : 5 543 Кбит/сек
Название фильма : 2021 The Falcon and the Winter Soldier S01E01 @ Nikolai.Baranov & PIRATIYA
Дата кодирования : UTC 2021-07-18 15:25:53
Программа кодирования : mkvmerge v59.0.0 ('Shining Star') 64-bit
Библиотека кодирования : libebml v1.4.2 + libmatroska v1.6.4
Видео
Идентификатор : 1
Формат : HEVC
Формат/Информация : High Efficiency Video Coding
Профиль формата : Main 10@L4@Main
Идентификатор кодека : V_MPEGH/ISO/HEVC
Продолжительность : 47 м. 15 с.
Битрейт : 2 981 Кбит/сек
Ширина : 1 920 пикселей
Высота : 804 пикселя
Соотношение сторон : 2,40:1
Режим частоты кадров : Постоянный
Частота кадров : 24,000 кадра/сек
Цветовое пространство : YUV
Субдискретизация насыщенности : 4:2:0
Битовая глубина : 10 бит
Бит/(Пиксели*Кадры) : 0.080
Размер потока : 1 008 Мбайт (54%)
Заголовок : The.Falcon.and.The.Winter.Soldier_S01E01_HEVC_DD5.1_N.B_HD_1080_4xRus_Eng
Библиотека кодирования : x265 3.5+1-ce882936d:[Windows][MSVC 1928][64 bit] 10bit
Настройки программы : cpuid=1111039 / frame-threads=3 / numa-pools=12 / wpp / no-pmode / no-pme / no-psnr / ssim / log-level=2 / input-csp=1 / input-res=1920x804 / interlace=0 / total-frames=68061 / level-idc=0 / high-tier=1 / uhd-bd=0 / ref=3 / no-allow-non-conformance / no-repeat-headers / annexb / no-aud / no-hrd / info / hash=0 / no-temporal-layers / open-gop / min-keyint=24 / keyint=250 / gop-lookahead=0 / bframes=8 / b-adapt=2 / b-pyramid / bframe-bias=0 / rc-lookahead=80 / lookahead-slices=5 / scenecut=40 / hist-scenecut=0 / radl=0 / no-splice / no-intra-refresh / ctu=64 / min-cu-size=8 / no-rect / no-amp / max-tu-size=32 / tu-inter-depth=1 / tu-intra-depth=1 / limit-tu=0 / rdoq-level=0 / dynamic-rd=0.00 / no-ssim-rd / signhide / no-tskip / nr-intra=0 / nr-inter=0 / no-constrained-intra / no-strong-intra-smoothing / max-merge=5 / limit-refs=1 / no-limit-modes / me=3 / subme=5 / merange=57 / temporal-mvp / no-frame-dup / no-hme / weightp / no-weightb / no-analyze-src-pics / deblock=0:0 / sao / no-sao-non-deblock / rd=3 / selective-sao=4 / early-skip / no-rskip / no-fast-intra / no-tskip-fast / no-cu-lossless / b-intra / no-splitrd-skip / rdpenalty=0 / psy-rd=2.00 / psy-rdoq=0.00 / no-rd-refine / no-lossless / cbqpoffs=0 / crqpoffs=0 / rc=crf / crf=19.0 / qcomp=0.60 / qpstep=4 / stats-write=0 / stats-read=0 / ipratio=1.40 / pbratio=1.30 / aq-mode=3 / aq-strength=1.00 / cutree / zone-count=0 / no-strict-cbr / qg-size=32 / no-rc-grain / qpmax=69 / qpmin=0 / no-const-vbv / sar=0 / overscan=0 / videoformat=5 / range=0 / colorprim=2 / transfer=2 / colormatrix=2 / chromaloc=0 / display-window=0 / cll=0,0 / min-luma=0 / max-luma=1023 / log2-max-poc-lsb=8 / vui-timing-info / vui-hrd-info / slices=1 / no-opt-qp-pps / no-opt-ref-list-length-pps / no-multi-pass-opt-rps / scenecut-bias=0.05 / hist-threshold=0.03 / no-opt-cu-delta-qp / no-aq-motion / no-hdr10 / no-hdr10-opt / no-dhdr10-opt / no-idr-recovery-sei / analysis-reuse-level=0 / analysis-save-reuse-level=0 / analysis-load-reuse-level=0 / scale-factor=0 / refine-intra=0 / refine-inter=0 / refine-mv=1 / refine-ctu-distortion=0 / no-limit-sao / ctu-info=0 / no-lowpass-dct / refine-analysis-type=0 / copy-pic=1 / max-ausize-factor=1.0 / no-dynamic-refine / no-single-sei / no-hevc-aq / no-svt / no-field / qp-adaptation-range=1.00 / scenecut-aware-qp=0conformance-window-offsets / right=0 / bottom=0 / decoder-max-rate=0 / no-vbv-live-multi-pass
Язык : Russian
Default : Да
Forced : Нет
Аудио #1
Идентификатор : 2
Формат : AC-3
Формат/Информация : Audio Coding 3
Коммерческое название : Dolby Digital
Идентификатор кодека : A_AC3
Продолжительность : 47 м. 15 с.
Вид битрейта : Постоянный
Битрейт : 640 Кбит/сек
Каналы : 6 каналов
Channel layout : L R C LFE Ls Rs
Частота : 48,0 КГц
Частота кадров : 31,250 кадров/сек (1536 SPF)
Метод сжатия : С потерями
Размер потока : 216 Мбайт (12%)
Заголовок : MVO LostFilm @DD5.1 AC3, 640 Kbps, 48.0 KHz, 6 ch
Язык : Russian
Service kind : Complete Main
Default : Да
Forced : Нет
Аудио #2
Идентификатор : 3
Формат : AC-3
Формат/Информация : Audio Coding 3
Коммерческое название : Dolby Digital
Идентификатор кодека : A_AC3
Продолжительность : 47 м. 15 с.
Вид битрейта : Постоянный
Битрейт : 384 Кбит/сек
Каналы : 6 каналов
Channel layout : L R C LFE Ls Rs
Частота : 48,0 КГц
Частота кадров : 31,250 кадров/сек (1536 SPF)
Метод сжатия : С потерями
Размер потока : 130 Мбайт (7%)
Заголовок : MVO NewStudio @DD5.1 AC3, 384 Kbps, 48.0 KHz, 6 ch
Язык : Russian
Service kind : Complete Main
Default : Нет
Forced : Нет
Аудио #3
Идентификатор : 4
Формат : AC-3
Формат/Информация : Audio Coding 3
Коммерческое название : Dolby Digital
Идентификатор кодека : A_AC3
Продолжительность : 47 м. 15 с.
Вид битрейта : Постоянный
Битрейт : 384 Кбит/сек
Каналы : 6 каналов
Channel layout : L R C LFE Ls Rs
Частота : 48,0 КГц
Частота кадров : 31,250 кадров/сек (1536 SPF)
Метод сжатия : С потерями
Размер потока : 130 Мбайт (7%)
Заголовок : MVO AlexFilm @DD5.1 AC3, 384 Kbps, 48.0 KHz, 6 ch
Язык : Russian
Service kind : Complete Main
Default : Нет
Forced : Нет
Аудио #4
Идентификатор : 5
Формат : AC-3
Формат/Информация : Audio Coding 3
Коммерческое название : Dolby Digital
Идентификатор кодека : A_AC3
Продолжительность : 47 м. 16 с.
Вид битрейта : Постоянный
Битрейт : 384 Кбит/сек
Каналы : 6 каналов
Channel layout : L R C LFE Ls Rs
Частота : 48,0 КГц
Частота кадров : 31,250 кадров/сек (1536 SPF)
Метод сжатия : С потерями
Размер потока : 130 Мбайт (7%)
Заголовок : MVO TVShows @DD5.1 AC3, 384 Kbps, 48.0 KHz, 6 ch
Язык : Russian
Service kind : Complete Main
Default : Нет
Forced : Нет
Аудио #5
Идентификатор : 6
Формат : E-AC-3 JOC
Формат/Информация : Enhanced AC-3 with Joint Object Coding
Коммерческое название : Dolby Digital Plus with Dolby Atmos
Идентификатор кодека : A_EAC3
Продолжительность : 47 м. 15 с.
Вид битрейта : Постоянный
Битрейт : 768 Кбит/сек
Каналы : 6 каналов
Channel layout : L R C LFE Ls Rs
Частота : 48,0 КГц
Частота кадров : 31,250 кадров/сек (1536 SPF)
Метод сжатия : С потерями
Размер потока : 260 Мбайт (14%)
Заголовок : English @DD5.1 E-AC3, 768 Kbps, 48.0 KHz, 6 ch
Язык : English
Service kind : Complete Main
Default : Нет
Forced : Нет
Complexity index : 16
Number of dynamic objects : 15
Bed channel count : 1 канал
Bed channel configuration : LFE
Текст #1
Идентификатор : 7
Формат : UTF-8
Идентификатор кодека : S_TEXT/UTF8
Идентификатор кодека/Информация : UTF-8 Plain Text
Продолжительность : 38 м. 47 с.
Битрейт : 1 бит/сек
Count of elements : 10
Размер потока : 509 байт (0%)
Заголовок : Новый мировой порядокк-Russian-Forced
Язык : Russian
Default : Да
Forced : Нет
Текст #2
Идентификатор : 8
Формат : UTF-8
Идентификатор кодека : S_TEXT/UTF8
Идентификатор кодека/Информация : UTF-8 Plain Text
Продолжительность : 42 м. 8 с.
Битрейт : 99 бит/сек
Count of elements : 566
Размер потока : 30,6 Кбайт (0%)
Заголовок : Новый мировой порядок-Где тексты, Лебовски
Язык : Russian
Default : Да
Forced : Нет
Текст #3
Идентификатор : 9
Формат : UTF-8
Идентификатор кодека : S_TEXT/UTF8
Идентификатор кодека/Информация : UTF-8 Plain Text
Продолжительность : 40 м. 48 с.
Битрейт : 105 бит/сек
Count of elements : 560
Размер потока : 31,6 Кбайт (0%)
Заголовок : Новый мировой порядокк-Russian--FOCS
Язык : Russian
Default : Да
Forced : Нет
Текст #4
Идентификатор : 10
Формат : UTF-8
Идентификатор кодека : S_TEXT/UTF8
Идентификатор кодека/Информация : UTF-8 Plain Text
Продолжительность : 42 м. 35 с.
Битрейт : 66 бит/сек
Count of elements : 674
Размер потока : 20,9 Кбайт (0%)
Заголовок : New World Order-English - SDH
Язык : English
Default : Да
Forced : Нет
Меню
00:00:00.000 : ru:Глава 01 / ru:Глава 01 / ru:Глава 01 / ru:Глава 01 / ru:Глава 01 / ru:Глава 01 / ru:Глава 01 / ru:Глава 01 / ru:Глава 01 / ru:Глава 01
--

Скриншоты

----
1 Сезон
--

Как закачать отдельный файл

1. Открыть торрент
2. Снять галки с тех файлов торрента, которые мы не хотим закачивать. Оставляем только на нужных нам файлах (файле).
3. Нажать О.К.
В клиенте utorrent
Инструкция
1) Открыть торрент

2) Снять галки с тех файлов торрента, которые мы не хотим закачивать:
* либо вручную, снимая с каждого файла галку( скрин №1)
* либо, нажав кнопку "Снять метки (Select None)", сняв сразу со всех файлов(скрин №2)
№1

№2

Оставляем только на нужных нам файлах (файле).

3)Нажать О.К
-- -- ----Релиз от: Nikolai.Baranov & PIRATIYAПоблагодарить:
ЯД: 410017546713876
-- -- -- --Время раздачи : 24/7---
[Profile]  [PM] 
Display posts:    
Reply to topic

Current time is: 20-Sep 13:40

All times are UTC + 2



You cannot post new topics in this forum
You cannot reply to topics in this forum
You cannot edit your posts in this forum
You cannot delete your posts in this forum
You cannot vote in polls in this forum
You cannot attach files in this forum
You cannot download files in this forum