(Шансон) Григорий Лепс/Александр Розенбаум - Берега чистого братства - 2011, FLAC ( tracks +.cue), lossless

Reply to topic
 
Author
Message

mario-OS ®

Gender: Male

Longevity: 9 years 8 months

Posts: 576

Reputation: 31 [+] [-]

Location: ...из страны, где шлюха стоит всего лишь доллар, солнце всегда и везде (с)

mario-OS · Post 25-Dec-2011 17:50

[Quote] 

Григорий Лепс и Александр Розенбаум - Берега чистого братства (2011) жанр: Шансон
Страна-производитель диска: Россия
Год издания диска: 2011
Издатель (лейбл): Мистерия Рекордс
Страна: Россия
Аудио кодек: FLAC (*.flac)
Тип рипа: tracks +.cue
Битрейт аудио: lossless
Продолжительность: 00:59:34
Источник (релизер): torrentsland.com.ua
Наличие сканов в содержимом раздачи: нет
Треклист


01. Камикадзе (Народному артисту России Л. Филатову)
02. Перевал любви
03. Четвертиночка
04. Вялотекущая шизофрения
05. Афганская вьюга
06. Посвящение Мандельштаму
07. Золотая клетка
08. Ты - мой ангел
09. Ночной кабак
10. Ша, братва
11. Гоп-стоп
12. Кошки
13. Последний рейс (Мужеству летчиков и памяти игроков ХК "Локомотив")
14. Вечерняя застольная (Трио с Иосифом Кобзоном)
-

Лог ЕАС

Exact Audio Copy V1.0 beta 2 from 29. April 2011
EAC extraction logfile from 23. December 2011, 22:08
Григорий Лепс и Александр Розенбаум / Берега чистого братства
Used drive : ASUS SDRW-08D2S-U Adapter: 0 ID: 0
Read mode : Secure
Utilize accurate stream : Yes
Defeat audio cache : Yes
Make use of C2 pointers : No
Read offset correction : 103
Overread into Lead-In and Lead-Out : No
Fill up missing offset samples with silence : Yes
Delete leading and trailing silent blocks : No
Null samples used in CRC calculations : Yes
Used interface : Installed external ASPI interface
Gap handling : Appended to previous track
Used output format : User Defined Encoder
Selected bitrate : 1024 kBit/s
Quality : High
Add ID3 tag : No
Command line compressor : C:\Program Files (x86)\Exact Audio Copy\Flac\flac.exe
Additional command line options : -8 -V -T "ARTIST=%albumartist%" -T "TITLE=%title%" -T "ALBUM=%albumtitle%" -T "DATE=%year%" -T "TRACKNUMBER=%tracknr%" -T "GENRE=%genre%" -T "COMMENT=EAC FLAC -8" %source%
TOC of the extracted CD
Track | Start | Length | Start sector | End sector
---------------------------------------------------------
1 | 0:00.00 | 3:46.06 | 0 | 16955
2 | 3:46.06 | 3:57.44 | 16956 | 34774
3 | 7:43.50 | 3:37.69 | 34775 | 51118
4 | 11:21.44 | 4:54.27 | 51119 | 73195
5 | 16:15.71 | 5:15.45 | 73196 | 96865
6 | 21:31.41 | 4:02.73 | 96866 | 115088
7 | 25:34.39 | 5:00.32 | 115089 | 137620
8 | 30:34.71 | 4:14.68 | 137621 | 156738
9 | 34:49.64 | 4:16.52 | 156739 | 175990
10 | 39:06.41 | 3:12.10 | 175991 | 190400
11 | 42:18.51 | 3:48.47 | 190401 | 207547
12 | 46:07.23 | 3:40.18 | 207548 | 224065
13 | 49:47.41 | 4:06.47 | 224066 | 242562
14 | 53:54.13 | 3:58.63 | 242563 | 260475
Track 1
Filename D:\eac\Григорий Лепс и Александр Розенбаум - 2011 - Берега чистого братства [FLAC (tracks+.cue)]\01 - Камикадзе (народному артисту России Л. Филатову).wav
Pre-gap length 0:00:02.00
Peak level 99.9 %
Extraction speed 2.2 X
Track quality 99.9 %
Test CRC 91C0DD06
Copy CRC 91C0DD06
Copy OK
Track 2
Filename D:\eac\Григорий Лепс и Александр Розенбаум - 2011 - Берега чистого братства [FLAC (tracks+.cue)]\02 - Перевал любви.wav
Peak level 98.8 %
Extraction speed 2.9 X
Track quality 100.0 %
Test CRC FD77A331
Copy CRC FD77A331
Copy OK
Track 3
Filename D:\eac\Григорий Лепс и Александр Розенбаум - 2011 - Берега чистого братства [FLAC (tracks+.cue)]\03 - Четвертиночка.wav
Peak level 98.8 %
Extraction speed 3.2 X
Track quality 100.0 %
Test CRC C4C8A6F6
Copy CRC C4C8A6F6
Copy OK
Track 4
Filename D:\eac\Григорий Лепс и Александр Розенбаум - 2011 - Берега чистого братства [FLAC (tracks+.cue)]\04 - Вялотекущая шизофрения.wav
Peak level 100.0 %
Extraction speed 3.5 X
Track quality 100.0 %
Test CRC 8A4F315A
Copy CRC 8A4F315A
Copy OK
Track 5
Filename D:\eac\Григорий Лепс и Александр Розенбаум - 2011 - Берега чистого братства [FLAC (tracks+.cue)]\05 - Афганская вьюга.wav
Peak level 98.8 %
Extraction speed 3.8 X
Track quality 100.0 %
Test CRC 1141B722
Copy CRC 1141B722
Copy OK
Track 6
Filename D:\eac\Григорий Лепс и Александр Розенбаум - 2011 - Берега чистого братства [FLAC (tracks+.cue)]\06 - Посвящение Мандельштаму.wav
Peak level 98.8 %
Extraction speed 3.9 X
Track quality 100.0 %
Test CRC 5D2326C7
Copy CRC 5D2326C7
Copy OK
Track 7
Filename D:\eac\Григорий Лепс и Александр Розенбаум - 2011 - Берега чистого братства [FLAC (tracks+.cue)]\07 - Золотая клетка.wav
Peak level 98.8 %
Extraction speed 3.6 X
Track quality 99.9 %
Test CRC B71E3F34
Copy CRC B71E3F34
Copy OK
Track 8
Filename D:\eac\Григорий Лепс и Александр Розенбаум - 2011 - Берега чистого братства [FLAC (tracks+.cue)]\08 - Ты - мой ангел.wav
Peak level 98.8 %
Extraction speed 4.4 X
Track quality 100.0 %
Test CRC E61B63D9
Copy CRC E61B63D9
Copy OK
Track 9
Filename D:\eac\Григорий Лепс и Александр Розенбаум - 2011 - Берега чистого братства [FLAC (tracks+.cue)]\09 - Ночной кабак.wav
Peak level 98.8 %
Extraction speed 4.6 X
Track quality 100.0 %
Test CRC 70321575
Copy CRC 70321575
Copy OK
Track 10
Filename D:\eac\Григорий Лепс и Александр Розенбаум - 2011 - Берега чистого братства [FLAC (tracks+.cue)]\10 - Ша, братва....wav
Peak level 98.8 %
Extraction speed 4.6 X
Track quality 100.0 %
Test CRC CDE7B6BE
Copy CRC CDE7B6BE
Copy OK
Track 11
Filename D:\eac\Григорий Лепс и Александр Розенбаум - 2011 - Берега чистого братства [FLAC (tracks+.cue)]\11 - Гоп-стоп.wav
Peak level 98.8 %
Extraction speed 4.8 X
Track quality 100.0 %
Test CRC 90B03276
Copy CRC 90B03276
Copy OK
Track 12
Filename D:\eac\Григорий Лепс и Александр Розенбаум - 2011 - Берега чистого братства [FLAC (tracks+.cue)]\12 - Кошки.wav
Peak level 98.8 %
Extraction speed 4.8 X
Track quality 100.0 %
Test CRC 5DEEEF5A
Copy CRC 5DEEEF5A
Copy OK
Track 13
Filename D:\eac\Григорий Лепс и Александр Розенбаум - 2011 - Берега чистого братства [FLAC (tracks+.cue)]\13 - Последний рейс (мужеству лётчиков и памяти игроков ХК ''Локомотив'').wav
Peak level 98.8 %
Extraction speed 4.2 X
Track quality 99.9 %
Test CRC D5E012C0
Copy CRC D5E012C0
Copy OK
Track 14
Filename D:\eac\Григорий Лепс и Александр Розенбаум - 2011 - Берега чистого братства [FLAC (tracks+.cue)]\14 - Вечерняя застольная (трио с Иосифом Кобзоном).wav
Peak level 98.8 %
Extraction speed 5.3 X
Track quality 100.0 %
Test CRC B200FDA9
Copy CRC B200FDA9
Copy OK
No errors occurred
End of status report

Cue Sheet

REM GENRE Chanson
REM DATE 2011
REM DISCID DF0D910E
REM COMMENT "ExactAudioCopy v1.0b2"
PERFORMER "Григорий Лепс и Александр Розенбаум"
TITLE "Берега чистого братства"
FILE "Григорий Лепс и Александр Розенбаум - 2011 - Берега чистого братства [FLAC (tracks+.cue)]\01 - Камикадзе (народному артисту России Л. Филатову).wav" WAVE
TRACK 01 AUDIO
TITLE "Камикадзе (народному артисту России Л. Филатову)"
PERFORMER "Григорий Лепс и Александр Розенбаум"
INDEX 01 00:00:00
FILE "Григорий Лепс и Александр Розенбаум - 2011 - Берега чистого братства [FLAC (tracks+.cue)]\02 - Перевал любви.wav" WAVE
TRACK 02 AUDIO
TITLE "Перевал любви"
PERFORMER "Григорий Лепс и Александр Розенбаум"
INDEX 01 00:00:00
FILE "Григорий Лепс и Александр Розенбаум - 2011 - Берега чистого братства [FLAC (tracks+.cue)]\03 - Четвертиночка.wav" WAVE
TRACK 03 AUDIO
TITLE "Четвертиночка"
PERFORMER "Григорий Лепс и Александр Розенбаум"
INDEX 01 00:00:00
FILE "Григорий Лепс и Александр Розенбаум - 2011 - Берега чистого братства [FLAC (tracks+.cue)]\04 - Вялотекущая шизофрения.wav" WAVE
TRACK 04 AUDIO
TITLE "Вялотекущая шизофрения"
PERFORMER "Григорий Лепс и Александр Розенбаум"
INDEX 01 00:00:00
FILE "Григорий Лепс и Александр Розенбаум - 2011 - Берега чистого братства [FLAC (tracks+.cue)]\05 - Афганская вьюга.wav" WAVE
TRACK 05 AUDIO
TITLE "Афганская вьюга"
PERFORMER "Григорий Лепс и Александр Розенбаум"
INDEX 01 00:00:00
FILE "Григорий Лепс и Александр Розенбаум - 2011 - Берега чистого братства [FLAC (tracks+.cue)]\06 - Посвящение Мандельштаму.wav" WAVE
TRACK 06 AUDIO
TITLE "Посвящение Мандельштаму"
PERFORMER "Григорий Лепс и Александр Розенбаум"
INDEX 01 00:00:00
FILE "Григорий Лепс и Александр Розенбаум - 2011 - Берега чистого братства [FLAC (tracks+.cue)]\07 - Золотая клетка.wav" WAVE
TRACK 07 AUDIO
TITLE "Золотая клетка"
PERFORMER "Григорий Лепс и Александр Розенбаум"
INDEX 01 00:00:00
FILE "Григорий Лепс и Александр Розенбаум - 2011 - Берега чистого братства [FLAC (tracks+.cue)]\08 - Ты - мой ангел.wav" WAVE
TRACK 08 AUDIO
TITLE "Ты - мой ангел"
PERFORMER "Григорий Лепс и Александр Розенбаум"
INDEX 01 00:00:00
FILE "Григорий Лепс и Александр Розенбаум - 2011 - Берега чистого братства [FLAC (tracks+.cue)]\09 - Ночной кабак.wav" WAVE
TRACK 09 AUDIO
TITLE "Ночной кабак"
PERFORMER "Григорий Лепс и Александр Розенбаум"
INDEX 01 00:00:00
FILE "Григорий Лепс и Александр Розенбаум - 2011 - Берега чистого братства [FLAC (tracks+.cue)]\10 - Ша, братва....wav" WAVE
TRACK 10 AUDIO
TITLE "Ша, братва..."
PERFORMER "Григорий Лепс и Александр Розенбаум"
INDEX 01 00:00:00
FILE "Григорий Лепс и Александр Розенбаум - 2011 - Берега чистого братства [FLAC (tracks+.cue)]\11 - Гоп-стоп.wav" WAVE
TRACK 11 AUDIO
TITLE "Гоп-стоп"
PERFORMER "Григорий Лепс и Александр Розенбаум"
INDEX 01 00:00:00
FILE "Григорий Лепс и Александр Розенбаум - 2011 - Берега чистого братства [FLAC (tracks+.cue)]\12 - Кошки.wav" WAVE
TRACK 12 AUDIO
TITLE "Кошки"
PERFORMER "Григорий Лепс и Александр Розенбаум"
INDEX 01 00:00:00
FILE "Григорий Лепс и Александр Розенбаум - 2011 - Берега чистого братства [FLAC (tracks+.cue)]\13 - Последний рейс (мужеству лётчиков и памяти игроков ХК ''Локомотив'').wav" WAVE
TRACK 13 AUDIO
TITLE "Последний рейс (мужеству лётчиков и памяти игроков ХК 'Локомотив')"
PERFORMER "Григорий Лепс и Александр Розенбаум"
INDEX 01 00:00:00
FILE "Григорий Лепс и Александр Розенбаум - 2011 - Берега чистого братства [FLAC (tracks+.cue)]\14 - Вечерняя застольная (трио с Иосифом Кобзоном).wav" WAVE
TRACK 14 AUDIO
TITLE "Вечерняя застольная (трио с Иосифом Кобзоном)"
PERFORMER "Григорий Лепс и Александр Розенбаум"
INDEX 01 00:00:00
-релиз от:
[Profile]  [PM] 
Display posts:    
Reply to topic

Current time is: 21-May 01:29

All times are UTC + 2



You cannot post new topics in this forum
You cannot reply to topics in this forum
You cannot edit your posts in this forum
You cannot delete your posts in this forum
You cannot vote in polls in this forum
You cannot attach files in this forum
You cannot download files in this forum