(Pop) Юрий Антонов - Золотой альбом (2007), APE (image + .cue), lossless

Reply to topic
 
Author
Message

STOJAK ®

Gender: Unknown

Longevity: 11 years

Posts: 21

Reputation: 0 [+] [-]

Location: Москва

STOJAK · Post 04-Feb-2010 18:37

[Quote] 

Юрий Антонов - Золотой альбом
Жанр: PopMusic
Год выпуска диска: 2007
Производитель диска: Россия
Аудио кодек: APE
Тип рипа: image+.cue
Битрейт аудио: lossless
Продолжительность: 01:15:44
Трэклист:
01. На улице Каштановой [04:05]
02. Белый теплоход [03:19]
03. Крыша дома твоего [02:34]
04. Золотая лестница [03:19]
05. Хмельная сирень [03:30]
06. Переулочки Арбата [03:12]
07. Вот как бывает [03:19]
08. Зеркало [03:34]
09. Море [02:39]
10. Снегири [02:31]
11. Нет тебя прекрасней [04:31]
12. От печали до радости [03:17]
13. Я иду к тебе навстречу [03:43]
14. Несет меня течение [04:23]
15. Двадцать лет спустя [03:33]
16. Берегите женщин [04:25]
17. На высоком берегу [03:33]
18. Мое богатство [02:31]
19. Не забывай [03:48]
20. А где-то [03:54]
21. Долгожданный самолет [03:10]
22. Анастасия [02:44]

CD и обратная сторона кавер


лог

Exact Audio Copy V0.99 prebeta 5 from 4. May 2009
Отчёт EAC об извлечении, выполненном 22. июля 2009, 10:52
Юрий Антонов / Золотой альбом
Дисковод: ASUS DRW-1608P3S Adapter: 0 ID: 1
Режим чтения : Достоверность
Использование точного потока : Да
Отключение кэша аудио : Да
Использование указателей C2 : Нет
Коррекция смещения при чтении : 48
Способность читать области Lead-in и Lead-out : Нет
Заполнение пропущенных сэмплов тишиной : Да
Удаление блоков с тишиной в начале и конце : Нет
При вычислениях CRC использовались нулевые сэмплы : Да
Интерфейс : Встроенный Win32-интерфейс для Win NT/2000
Выходной формат : Внутренние WAV-операции
Формат сэмплов : 44.100 Гц; 16 бит; стерео
TOC извлечённого CD
Трек | Старт | Длительность | Начальный сектор | Конечный сектор
---------------------------------------------------------------------
1 | 0:00.00 | 4:05.55 | 0 | 18429
2 | 4:05.55 | 3:19.14 | 18430 | 33368
3 | 7:24.69 | 2:34.72 | 33369 | 44990
4 | 9:59.66 | 3:19.26 | 44991 | 59941
5 | 13:19.17 | 3:30.08 | 59942 | 75699
6 | 16:49.25 | 3:12.65 | 75700 | 90164
7 | 20:02.15 | 3:19.63 | 90165 | 105152
8 | 23:22.03 | 3:34.08 | 105153 | 121210
9 | 26:56.11 | 2:39.48 | 121211 | 133183
10 | 29:35.59 | 2:31.54 | 133184 | 144562
11 | 32:07.38 | 4:31.58 | 144563 | 164945
12 | 36:39.21 | 3:17.03 | 164946 | 179723
13 | 39:56.24 | 3:42.74 | 179724 | 196447
14 | 43:39.23 | 4:23.14 | 196448 | 216186
15 | 48:02.37 | 3:33.51 | 216187 | 232212
16 | 51:36.13 | 4:25.38 | 232213 | 252125
17 | 56:01.51 | 3:33.20 | 252126 | 268120
18 | 59:34.71 | 2:31.15 | 268121 | 279460
19 | 62:06.11 | 3:48.43 | 279461 | 296603
20 | 65:54.54 | 3:54.18 | 296604 | 314171
21 | 69:48.72 | 3:10.11 | 314172 | 328432
22 | 72:59.08 | 2:44.40 | 328433 | 340772
Характеристики диапазона извлечения и сообщения об ошибках
Выбранный диапазон
Имя файла E:\Music\Ю.Антонов - Золотой Альбом\Юрий Антонов - Золотой альбом.wav
Пиковый уровень 100.0 %
Качество диапазона 99.9 %
CRC копии D5108DF7
Копирование... OK
Ошибок не произошло
AccurateRip: сводка
Трек 1 точное извлечение (доверие 1) [81DAD51F]
Трек 2 точное извлечение (доверие 1) [A34B5CD3]
Трек 3 точное извлечение (доверие 1) [DEF3BC39]
Трек 4 точность не определена (достоверность 1) [162CB771], AccurateRip вернул [207099EE]
Трек 5 точность не определена (достоверность 1) [DA664EFA], AccurateRip вернул [74D1E53F]
Трек 6 точное извлечение (доверие 1) [6F201CB1]
Трек 7 точное извлечение (доверие 1) [6596D34F]
Трек 8 точное извлечение (доверие 1) [80C46C64]
Трек 9 точное извлечение (доверие 1) [1B06A67E]
Трек 10 точное извлечение (доверие 1) [CB0AC91C]
Трек 11 точное извлечение (доверие 1) [696383C4]
Трек 12 точное извлечение (доверие 1) [8AAD5F90]
Трек 13 точное извлечение (доверие 1) [363895B3]
Трек 14 точное извлечение (доверие 1) [99861795]
Трек 15 точное извлечение (доверие 1) [EBF92EAC]
Трек 16 точное извлечение (доверие 1) [6C2F071D]
Трек 17 точное извлечение (доверие 1) [E25FDE11]
Трек 18 точное извлечение (доверие 1) [896894ED]
Трек 19 точное извлечение (доверие 1) [8318D574]
Трек 20 точное извлечение (доверие 1) [3FFDDB42]
Трек 21 точное извлечение (доверие 1) [553CA23D]
Трек 22 точное извлечение (доверие 1) [00BBB3A3]
20 трек(и) скопированы точно
2 трек(и) не удалось проверить на точность
Некоторые треки не прошли проверку на точность
Конец отчёта
[Profile]  [PM] 

STOJAK

Gender: Unknown

Longevity: 11 years

Posts: 21

Reputation: 0 [+] [-]

Location: Москва

STOJAK · Post 04-Feb-2010 19:10 (after 32 minutes)

[Quote] 

Сомнительно - это и понятно и правильно,уж очень долго EAC с ним возился...ведь эти хитрые издания ....всегда сомнительны,но для меломанов они бывают интересны.....
Но все рипы мною сделаны ,всегда только из личной коллекции, и только с оригиналов...
[Profile]  [PM] 

mario-OS

Gender: Male

Longevity: 11 years

Posts: 575

Reputation: 31 [+] [-]

Location: ...из страны, где шлюха стоит всего лишь доллар, солнце всегда и везде (с)

mario-OS · Post 04-Feb-2010 19:24 (after 13 minutes)

[Quote] 

Коллекция у тебя хорошая!Так держать! Wink
[Profile]  [PM] 
Display posts:    
Reply to topic

Current time is: 28-Feb 21:38

All times are UTC + 2



You cannot post new topics in this forum
You cannot reply to topics in this forum
You cannot edit your posts in this forum
You cannot delete your posts in this forum
You cannot vote in polls in this forum
You cannot attach files in this forum
You cannot download files in this forum