(Pop/Rock) Валерий Струков (Группа"Империя") - Эти дни золотые - 2003, APE (image + .cue), lossless

Reply to topic
 
Author
Message

STOJAK ®

Gender: Unknown

Longevity: 11 years

Posts: 21

Reputation: 0 [+] [-]

Location: Москва

STOJAK · Post 13-Oct-2009 18:57

[Quote] 

Валерий Струков (Группа"Империя") - Эти дни золотые
Страна: Росия
Жанр: Pop/Rock
Год выпуска: 2003
Формат: APE (image + .cue)
Битрейт аудио: lossless
Продолжительность: 56:42
Трэклист:
01. "Эти дни золотые (Старый сад) (Муз и сл.В.Струков)"
02. "Жизнь обман (Муз и сл.В.Струков,А.Есенин)"
03. "Этот сладкий сон (Муз и сл.В.Струков)"
04. "Вернуться в школьные дни (Муз. и сл. К.Бубнов)"
05. "Судьба (Муз и сл.В.Струков)"
06. "Утренние звёзды (Муз и сл.В.Струков)"
07. "Время (Ещё одна звезда) (Муз. В.Струков,Ю.Николаев - Сл.В.Струков))"
08. "Восточная колыбельная (Муз и сл.В.Струков)"
09. "Вьюга (Муз. и Сл. К.Бубнов)"
10. "Ночью лунной (Муз. В.Савинов,В.Струков - Сл.Г.Грановский)"
11. "Акварельные сны (Муз и сл.В.Струков)"
12. "Вдохновение (Море) ((Муз.В.Струков,Ю.Николаев - Сл.В.Струков)"
13. "Всё не повторится (Remix) (Муз и сл.В.Струков)"
14. "Не забывайте Вашего Артиста В.С. (Муз и сл.В.Струков)"

БОНУС: Утренние звёзды (видеоклип)
Отчёт EAC об извлечении, выполненном 13. октября 2009, 19:41:
Exact Audio Copy V0.99 prebeta 3 from 28. July 2007
Отчёт EAC об извлечении, выполненном 13. октября 2009, 19:41
СТРУКОВ ВАЛЕРИЙ / "Эти дни золотые"
Дисковод: Optiarc DVD RW AD-7190A Adapter: 0 ID: 0
Режим чтения : Достоверность
Использование точного потока : Да
Отключение кэша аудио : Да
Использование указателей C2 : Нет
Коррекция смещения при чтении : 6
Способность читать области Lead-in и Lead-out : Нет
Заполнение пропущенных сэмплов тишиной : Да
Удаление блоков с тишиной в начале и конце : Нет
При вычислениях CRC использовались нулевые сэмплы : Да
Интерфейс : Встроенный Win32-интерфейс для Win NT/2000
Выходной формат : Внутренние WAV-операции
Формат сэмплов : 44.100 Гц; 16 бит; стерео
TOC извлечённого CD
Трек | Старт | Длительность | Начальный сектор | Конечный сектор
---------------------------------------------------------------------
1 | 0:00.00 | 4:30.68 | 0 | 20317
2 | 4:30.68 | 4:37.29 | 20318 | 41121
3 | 9:08.22 | 3:38.07 | 41122 | 57478
4 | 12:46.29 | 3:07.00 | 57479 | 71503
5 | 15:53.29 | 3:48.57 | 71504 | 88660
6 | 19:42.11 | 4:05.24 | 88661 | 107059
7 | 23:47.35 | 4:47.66 | 107060 | 128650
8 | 28:35.26 | 4:26.18 | 128651 | 148618
9 | 33:01.44 | 3:48.35 | 148619 | 165753
10 | 36:50.04 | 3:37.39 | 165754 | 182067
11 | 40:27.43 | 4:18.62 | 182068 | 201479
12 | 44:46.30 | 5:02.59 | 201480 | 224188
13 | 49:49.14 | 3:05.53 | 224189 | 238116
14 | 52:54.67 | 3:46.47 | 238117 | 255113
15 | 59:13.39 | 12:39.38 | 266514 | 323476
Характеристики диапазона извлечения и сообщения об ошибках
Выбранный диапазон
Имя файла D:\СОЛИСТЫ\СТРУКОВ ВАЛЕРИЙ © [Дискография]\СТРУКОВ ВАЛЕРИЙ © 2003 [Эти дни золотые]\СТРУКОВ ВАЛЕРИЙ - Эти дни золотые.wav
Пиковый уровень 100.0 %
Качество диапазона 100.0 %
CRC копии 9BED1AE1
Копирование... OK
Ошибок не произошло
AccurateRip: сводка
Трек 1 нет в базе данных
Трек 2 нет в базе данных
Трек 3 нет в базе данных
Трек 4 нет в базе данных
Трек 5 нет в базе данных
Трек 6 нет в базе данных
Трек 7 нет в базе данных
Трек 8 нет в базе данных
Трек 9 нет в базе данных
Трек 10 нет в базе данных
Трек 11 нет в базе данных
Трек 12 нет в базе данных
Трек 13 нет в базе данных
Трек 14 нет в базе данных
Ни одного трека нет в базе AccurateRip
Конец отчёта


Last edited by STOJAK on 2009-12-30 07:49; edited 2 times in total
[Profile]  [PM] 
Display posts:    
Reply to topic

Current time is: 14-May 19:03

All times are UTC + 2



You cannot post new topics in this forum
You cannot reply to topics in this forum
You cannot edit your posts in this forum
You cannot delete your posts in this forum
You cannot vote in polls in this forum
You cannot attach files in this forum
You cannot download files in this forum