(Pop/Retro) Юрий Антонов - Серия «Большая Российская Музыкальная Энциклопедия» (2000), FLAC (image+.cue), lossless

Reply to topic
 
Author
Message

STOJAK ®

Gender: Unknown

Longevity: 11 years

Posts: 21

Reputation: 0 [+] [-]

Location: Москва

STOJAK · Post 04-Feb-2010 19:02

[Quote] 

Юрий Антонов / Серия «Большая Российская Музыкальная Энциклопедия»
Жанр: Pop/Retro
Страна-производитель диска: Россия
Год издания: 2000
Издатель (лейбл): © Меккофон
Номер по каталогу: 80 ES 0011 CDEP
Страна: Россия
Аудиокодек: FLAC (*.flac)
Тип рипа: image+.cue
Битрейт аудио: lossless
Продолжительность: 01:10:19
Источник (релизер): STOJAK
Наличие сканов в содержимом раздачи: да (PNG)
Треклист:
01. "На улице Каштановой (Ю. Антонов - И. Шаферан)"
02. "На высоком берегу (Ю. Антонов - С. Алиханов, Ю. Антонов)"
03. "Крыша дома твоего (Ю. Антонов - М. Пляцковский)"
04. "Белый теплоход (Ю. Антонов - В. Дюнин)"
05. "Море (Ю. Антонов - Л. Фадеев)"
06. "От печали до радости (Ю. Антонов - Б. Дубровин)"
07. "Золотая лестница (Ю. Антонов - М. Виккерс)"
08. "Не говорите мне «Прощай» (Ю. Антонов - М. Рябинин)"
09. "Переулочки Арбата (Ю. Антонов - О. Виленкин)"
10. "Двадцать лет спустя (Ю. Антонов - Л. Фадеев)"
11. "Лунная дорожка (Ю. Антонов - С. Алиханов, Ю. Антонов)"
12. "Хмельная сирень (Ю.Антонов - А.Косарев)"
13. "Зеркало (Ю. Антонов - М. Танич)"
14. "Не забывай (Ю. Антонов - М. Танич)"
15. "Вот как бывает (Ю. Антонов - В. Дюнин)"
16. "Моё богатство (Ю. Антонов - И. Кохановский)"
17. "Я иду к тебе навстречу (Ю. Антонов - В. Дюнин)"
18. "Снегири (Ю. Антонов - М. Дудин)"
19. "Анастасия (Ю. Антонов - Л. Фадеев)"
20. "О тебе и обо мне (Ю. Антонов - А. Косарев)"
21. "Берегите женщин (Ю. Антонов - Л. Фадеев)"
22. "Всё как прежде (Ю. Антонов - В. Дюнин)"
23. "Долгожданный самолёт (Ю. Антонов - А. Косарев)"

Отчёт EAC об извлечении, выполненном 9. ноября 2012, 7:13

Exact Audio Copy V1.0 beta 2 from 29. April 2011
Отчёт EAC об извлечении, выполненном 9. ноября 2012, 7:13
Юрий Антонов / Серия «Большая Российская Музыкальная Энциклопедия»
Дисковод: Optiarc DVD RW AD-7190A Adapter: 0 ID: 0
Режим чтения : Достоверность
Использование точного потока : Да
Отключение кэша аудио : Да
Использование указателей C2 : Нет
Коррекция смещения при чтении : 6
Способность читать области Lead-in и Lead-out : Нет
Заполнение пропущенных сэмплов тишиной : Да
Удаление блоков с тишиной в начале и конце : Нет
При вычислениях CRC использовались нулевые сэмплы : Да
Интерфейс : Встроенный Win32-интерфейс для Win NT/2000
Выходной формат : Внутренние WAV-операции
Формат сэмплов : 44.100 Гц; 16 бит; стерео
TOC извлечённого CD
Трек | Старт | Длительность | Начальный сектор | Конечный сектор
---------------------------------------------------------------------
1 | 0:00.00 | 4:04.72 | 0 | 18371
2 | 4:04.72 | 3:33.10 | 18372 | 34356
3 | 7:38.07 | 2:30.49 | 34357 | 45655
4 | 10:08.56 | 3:18.22 | 45656 | 60527
5 | 13:27.03 | 2:39.06 | 60528 | 72458
6 | 16:06.09 | 3:17.08 | 72459 | 87241
7 | 19:23.17 | 3:19.04 | 87242 | 102170
8 | 22:42.21 | 3:45.29 | 102171 | 119074
9 | 26:27.50 | 3:12.40 | 119075 | 133514
10 | 29:40.15 | 3:33.38 | 133515 | 149527
11 | 33:13.53 | 4:22.34 | 149528 | 169211
12 | 37:36.12 | 3:30.69 | 169212 | 185030
13 | 41:07.06 | 3:33.26 | 185031 | 201031
14 | 44:40.32 | 3:48.28 | 201032 | 218159
15 | 48:28.60 | 3:19.45 | 218160 | 233129
16 | 51:48.30 | 2:30.36 | 233130 | 244415
17 | 54:18.66 | 3:42.29 | 244416 | 261094
18 | 58:01.20 | 2:31.17 | 261095 | 272436
19 | 60:32.37 | 2:45.19 | 272437 | 284830
20 | 63:17.56 | 3:26.58 | 284831 | 300338
21 | 66:44.39 | 4:24.65 | 300339 | 320203
22 | 71:09.29 | 3:00.64 | 320204 | 333767
23 | 74:10.18 | 4:59.33 | 333768 | 356225
Характеристики диапазона извлечения и сообщения об ошибках
Выбранный диапазон
Имя файла J:\ОТЕЧЕСТВЕННАЯ RETRO - МУЗЫКА\АНТОНОВ ЮРИЙ © [Дискография]\АНТОНОВ ЮРИЙ (c) 1991-2013 [CD]\АНТОНОВ Юрий (c) 2000 [CD] (Большая Российская Музыкальная Энциклопедия)\Юрий Антонов - Серия «Большая Российская Музыкальная Энциклопедия».wav
Пиковый уровень 100.0 %
Скорость извлечения 7.6 X
Качество диапазона 100.0 %
CRC теста C1B40F22
CRC копии C1B40F22
Копирование... OK
Ошибок не произошло
AccurateRip: сводка
Трек 1 отсутствует в базе данных
Трек 2 отсутствует в базе данных
Трек 3 отсутствует в базе данных
Трек 4 отсутствует в базе данных
Трек 5 отсутствует в базе данных
Трек 6 отсутствует в базе данных
Трек 7 отсутствует в базе данных
Трек 8 отсутствует в базе данных
Трек 9 отсутствует в базе данных
Трек 10 отсутствует в базе данных
Трек 11 отсутствует в базе данных
Трек 12 отсутствует в базе данных
Трек 13 отсутствует в базе данных
Трек 14 отсутствует в базе данных
Трек 15 отсутствует в базе данных
Трек 16 отсутствует в базе данных
Трек 17 отсутствует в базе данных
Трек 18 отсутствует в базе данных
Трек 19 отсутствует в базе данных
Трек 20 отсутствует в базе данных
Трек 21 отсутствует в базе данных
Трек 22 отсутствует в базе данных
Трек 23 отсутствует в базе данных
Ни одного трека нет в базе AccurateRip
Конец отчёта
==== Контрольная сумма отчёта 591B11DD14B9951192E6D61FE23C0E2EF0BB854FD20799CEE1CC0226691B0642 ====

Содержание индексной карты (.CUE)

REM GENRE Retro/Pop
REM DATE 2000
REM DISCID 5D128D17
REM COMMENT "ExactAudioCopy v1.0b2"
PERFORMER "Юрий Антонов"
TITLE "Серия «Большая Российская Музыкальная Энциклопедия»"
FILE "Юрий Антонов - Серия «Большая Российская Музыкальная Энциклопедия».flac" WAVE
TRACK 01 AUDIO
TITLE "На улице Каштановой (Ю. Антонов - И. Шаферан)"
PERFORMER "Юрий Антонов"
FLAGS DCP
INDEX 01 00:00:00
TRACK 02 AUDIO
TITLE "На высоком берегу (Ю. Антонов - С. Алиханов, Ю. Антонов)"
PERFORMER "Юрий Антонов"
FLAGS DCP
INDEX 01 04:04:72
TRACK 03 AUDIO
TITLE "Крыша дома твоего (Ю. Антонов - М. Пляцковский)"
PERFORMER "Юрий Антонов"
FLAGS DCP
INDEX 01 07:38:07
TRACK 04 AUDIO
TITLE "Белый теплоход (Ю. Антонов - В. Дюнин)"
PERFORMER "Юрий Антонов"
FLAGS DCP
INDEX 01 10:08:56
TRACK 05 AUDIO
TITLE "Море (Ю. Антонов - Л. Фадеев)"
PERFORMER "Юрий Антонов"
FLAGS DCP
INDEX 01 13:27:03
TRACK 06 AUDIO
TITLE "От печали до радости (Ю. Антонов - Б. Дубровин)"
PERFORMER "Юрий Антонов"
FLAGS DCP
INDEX 01 16:06:09
TRACK 07 AUDIO
TITLE "Золотая лестница (Ю. Антонов - М. Виккерс)"
PERFORMER "Юрий Антонов"
FLAGS DCP
INDEX 01 19:23:17
TRACK 08 AUDIO
TITLE "Не говорите мне «Прощай» (Ю. Антонов - М. Рябинин)"
PERFORMER "Юрий Антонов"
FLAGS DCP
INDEX 01 22:42:21
TRACK 09 AUDIO
TITLE "Переулочки Арбата (Ю. Антонов - О. Виленкин)"
PERFORMER "Юрий Антонов"
FLAGS DCP
INDEX 01 26:27:50
TRACK 10 AUDIO
TITLE "Двадцать лет спустя (Ю. Антонов - Л. Фадеев)"
PERFORMER "Юрий Антонов"
FLAGS DCP
INDEX 01 29:40:15
TRACK 11 AUDIO
TITLE "Лунная дорожка (Ю. Антонов - С. Алиханов, Ю. Антонов)"
PERFORMER "Юрий Антонов"
FLAGS DCP
INDEX 01 33:13:53
TRACK 12 AUDIO
TITLE "Хмельная сирень (Ю.Антонов - А.Косарев)"
PERFORMER "Юрий Антонов"
FLAGS DCP
INDEX 01 37:36:12
TRACK 13 AUDIO
TITLE "Зеркало (Ю. Антонов - М. Танич)"
PERFORMER "Юрий Антонов"
FLAGS DCP
INDEX 01 41:07:06
TRACK 14 AUDIO
TITLE "Не забывай (Ю. Антонов - М. Танич)"
PERFORMER "Юрий Антонов"
FLAGS DCP
INDEX 01 44:40:32
TRACK 15 AUDIO
TITLE "Вот как бывает (Ю. Антонов - В. Дюнин)"
PERFORMER "Юрий Антонов"
FLAGS DCP
INDEX 01 48:28:60
TRACK 16 AUDIO
TITLE "Моё богатство (Ю. Антонов - И. Кохановский)"
PERFORMER "Юрий Антонов"
FLAGS DCP
INDEX 01 51:48:30
TRACK 17 AUDIO
TITLE "Я иду к тебе навстречу (Ю. Антонов - В. Дюнин)"
PERFORMER "Юрий Антонов"
FLAGS DCP
INDEX 01 54:18:66
TRACK 18 AUDIO
TITLE "Снегири (Ю. Антонов - М. Дудин)"
PERFORMER "Юрий Антонов"
FLAGS DCP
INDEX 01 58:01:20
TRACK 19 AUDIO
TITLE "Анастасия (Ю. Антонов - Л. Фадеев)"
PERFORMER "Юрий Антонов"
FLAGS DCP
INDEX 01 60:32:37
TRACK 20 AUDIO
TITLE "О тебе и обо мне (Ю. Антонов - А. Косарев)"
PERFORMER "Юрий Антонов"
FLAGS DCP
INDEX 01 63:17:56
TRACK 21 AUDIO
TITLE "Берегите женщин (Ю. Антонов - Л. Фадеев)"
PERFORMER "Юрий Антонов"
FLAGS DCP
INDEX 01 66:44:39
TRACK 22 AUDIO
TITLE "Всё как прежде (Ю. Антонов - В. Дюнин)"
PERFORMER "Юрий Антонов"
FLAGS DCP
INDEX 01 71:09:29
TRACK 23 AUDIO
TITLE "Долгожданный самолёт (Ю. Антонов - А. Косарев)"
PERFORMER "Юрий Антонов"
FLAGS DCP
INDEX 01 74:10:18

Лог проверки качества

AUDIOCHECKER v2.0 beta (build 457) - by Dester - opdester@freemail.hu
~~~~~~~~~~~~~~~~~~~~~~~~~~~~~~~~~~
-=== DO NOT EDIT THIS FILE! ===-
Path: ...\АНТОНОВ Юрий (c) 2000 [CD] (Большая Российская Музыкальная Энциклопедия)
1 -=- Юрий Антонов - Серия «Большая Российская Музыкальная Энциклопедия».wav -=- CDDA (99%)
134573764

COVERS CD



Last edited by STOJAK on 2010-02-07 18:19; edited 1 time in total
[Profile]  [PM] 
Display posts:    
Reply to topic

Current time is: 28-Feb 20:06

All times are UTC + 2



You cannot post new topics in this forum
You cannot reply to topics in this forum
You cannot edit your posts in this forum
You cannot delete your posts in this forum
You cannot vote in polls in this forum
You cannot attach files in this forum
You cannot download files in this forum