Проклятие Спящей красавицы / The Curse of Sleeping Beauty (Тео Пирри / Pearry Reginald Teo) [2016, США, Фэнтези, триллер, детектив, HDRip] VO ХихиДок

Reply to topic
 
Author
Message

Satyr ®

Gender: Unknown

Longevity: 10 years

Posts: 12858

Reputation: 54 [+] [-]

Satyr · Post 11-Sep-2016 01:21

[Quote] 

Проклятие Спящей красавицы / The Curse of Sleeping Beauty
Страна: США
Жанр: Фэнтези, триллер, детектив
Год выпуска: 2016
Продолжительность: 01:26:19
Перевод: Одноголосый закадровый ХихиДок
Cубтитры: нет
Режиссер: Тео Пирри / Pearry Reginald Teo
В ролях: Индиа Айсли, Итан Пек, Натали Холл, Брюс Дэвисон, Джеймс Лим, Скотт Алан Смит, Зак Уорд, Мим Дрю, Даллас Харт
Описание: В жизни каждого человека есть место для сказки, а вот у героя данного фильма Томаса Кайзера эта сказка даже воплотилась в реальность. Только вот получилась она какой-то мрачной и кошмарной. А началось все из того, что ему приснилась спящая красавица, которая ждала именно его поцелуя. Парень не обратил на это внимания, но сон повторился снова и снова. А вскоре он узнал, что умер его дядюшка, оставив Томасу в наследство практически все имущество. Следует сказать, что во владениях покойного дяди было старинное огромное поместье, поэтому племянник обрадовался богатому наследству. Впрочем, довольно скоро его восторг сменился паническим страхом, когда он понял, что поместье проклято – в лабиринтах его многих помещений проживали призраки....
Внимание перезалив : -- На лучшее качество и звук ....
Сэмпл: http://multi-up.com/1114730
Качество видео: HDRip
Формат видео: AVI
Видео: XviD 73, 720x304, (2,35:1), 23,976 fps, 996 Кбит/с, 8 бит
Аудио: Русский (МР3, 2 ch, 48,0 KHz, 128 Kbps)

MediaInfo

Общее
Полное имя : F:\Видеофильмы\В и д е о\Проклятие Спящей красавицы (ужасы 2016 год).avi
Формат : AVI
Формат/Информация : Audio Video Interleave
Размер файла : 700 Мбайт
Продолжительность : 1 ч. 26 м.
Общий поток : 1133 Кбит/сек
Программа кодирования : VirtualDubMod 1.5.10.2 (build 2540/release)
Библиотека кодирования : VirtualDubMod build 2540/release
Видео
Идентификатор : 0
Формат : MPEG-4 Visual
Профиль формата : Advanced Simple@L5
Параметр BVOP формата : 2
Параметр QPel формата : Нет
Параметр GMC формата : Без точки перехода
Параметр матрицы формата : Выборочная
Идентификатор кодека : XVID
Идентификатор кодека/Подсказка : XviD
Продолжительность : 1 ч. 26 м.
Битрейт : 996 Кбит/сек
Ширина : 720 пикселей
Высота : 304 пикселя
Соотношение сторон : 2,35:1
Частота кадров : 23,976 (23976/1000) кадра/сек
Цветовое пространство : YUV
Субдискретизация насыщенности : 4:2:0
Битовая глубина : 8 бит
Тип развёртки : Прогрессивная
Метод сжатия : С потерями
Бит/(Пиксели*Кадры) : 0.190
Размер потока : 615 Мбайт (88%)
Библиотека кодирования : XviD 1.2.1 (UTC 2008-12-04)
Аудио
Идентификатор : 1
Формат : MPEG Audio
Версия формата : Version 1
Профиль формата : Layer 3
Режим : Joint stereo
Расширение режима : MS Stereo
Идентификатор кодека : 55
Идентификатор кодека/Подсказка : MP3
Продолжительность : 1 ч. 26 м.
Вид битрейта : Постоянный
Битрейт : 128 Кбит/сек
Каналы : 2 канала
Частота : 48,0 КГц
Метод сжатия : С потерями
Размер потока : 79,0 Мбайт (11%)
Выравнивание : Соединение по промежуткам
Продолжительность промежутка : 42 мс. (1,00 видеокадр)
Время предзагрузки промежутка : 504 мс.

Скриншот c названием фильма

Скриншоты

[Profile]  [PM] 
Display posts:    
Reply to topic

Current time is: 22-Apr 18:45

All times are UTC + 2



You cannot post new topics in this forum
You cannot reply to topics in this forum
You cannot edit your posts in this forum
You cannot delete your posts in this forum
You cannot vote in polls in this forum
You cannot attach files in this forum
You cannot download files in this forum