Пассажиры / Passengers (Мортен Тильдум / Morten Tyldum) [2016, США, фантастика, драма, мелодрама, WEB-DLRip] Dub + Sub (rus)

Reply to topic
 
Author
Message

Satyr ®

Online

Gender: Unknown

Longevity: 12 years

Posts: 17867

Reputation: 56 [+] [-]

Satyr · Post 24-Feb-2017 11:10

[Quote] 

Пассажиры / Passengers«Ничто не случайно»- Страна: США
Жанр: фантастика, драма, мелодрама, приключения
Год выпуска: 2016
Продолжительность: 01:56:09
Перевод: Профессиональный (дублированный) (iTunes)
Оригинальная аудиодорожка: нет
Субтитры: русские (форс.)
Режиссер: Мортен Тильдум / Morten Tyldum
В ролях: Дженнифер Лоуренс (Aurora Lane), Крис Пратт (Jim Preston), Майкл Шин (Arthur), Лоренс Фишбёрн (Gus Mancuso), Энди Гарсиа (Captain Norris), Винс Фостер (Executive Officer), Кара Мишель Уайлдер (Communications Officer), Конор Брофи (Crew Member), Джули Серда (Instructor (Hologram)), Аврора Перрино (Best Friend), Лорен Фармер (Party Friend), Emerald Mayne (Party Friend)
Описание: Космический корабль с 5000 пассажиров на борту, погруженных на время полета в искусственный сон, держит курс на планету, которая станет для них новым домом. Всё идет по плану, но из-за сбоя системы двое пассажиров неожиданно просыпаются и понимают, что до конечного пункта путешествия - 90 лет пути, и им суждено остаток жизни провести вдвоем в роскошных интерьерах корабля, оснащенного по последнему слову техники. Постепенно Джима и Аврору начинает непреодолимо тянуть друг к другу, но корабль попадает в беду, и теперь в их руках - жизнь и судьба всех обитателей корабля.- -Качество: WEB-DLRip (исходник - Passengers.2016.1080p.WEB-DL.DD5.1.H264-FGT)
Формат видео: AVI
Видео: XviD, 720x304 (2.35:1) 23,976 fps, ~1418 kbps, 0.270 bit/pixel
Аудио: 48 kHz, AC3 Dolby Digital, 3/2 (L,C,R,l,r) + LFE ch, ~384 kbps
Формат субтитров: softsub (SRT)-

MediaInfo

Format : AVI
Format/Info : Audio Video Interleave
File size : 1.47 GiB
Duration : 1h 56 min
Overall bit rate : 1 811 kb/s
Movie name : Пассажиры / Passengers (2016) :: AFM ::
Writing application : VirtualDubMod 1.5.10.3 | www.virtualdub-fr.org || (build 2550/release)
Writing library : VirtualDubMod build 2550/release
Video
ID : 0
Format : MPEG-4 Visual
Format profile : Advanced Simple@L5
Format settings, BVOP : 1
Format settings, QPel : No
Format settings, GMC : No warppoints
Format settings, Matrix : Custom
Codec ID : XVID
Codec ID/Hint : XviD
Duration : 1h 56 min
Bit rate : 1 418 kb/s
Width : 720 pixels
Height : 304 pixels
Display aspect ratio : 2.35:1
Frame rate : 23.976 (23976/1000) FPS
Color space : YUV
Chroma subsampling : 4:2:0
Bit depth : 8 bits
Scan type : Progressive
Compression mode : Lossy
Bits/(Pixel*Frame) : 0.270
Stream size : 1.15 GiB (78%)
Writing library : XviD 73
Audio
ID : 1
Format : AC-3
Format/Info : Audio Coding 3
Mode extension : CM (complete main)
Format settings, Endianness : Big
Codec ID : 2000
Duration : 1h 56 min
Bit rate mode : Constant
Bit rate : 384 kb/s
Channel(s) : 6 channels
Channel positions : Front: L C R, Side: L R, LFE
Sampling rate : 48.0 kHz
Frame rate : 31.250 FPS (1536 spf)
Compression mode : Lossy
Stream size : 319 MiB (21%)
Alignment : Split accross interleaves
Interleave, duration : 42 ms (1.00 video frame)
Interleave, preload duration : 500 ms

Скриншоты

с названием

[Profile]  [PM] 
Display posts:    
Reply to topic

Current time is: 25-Jul 20:53

All times are UTC + 2



You cannot post new topics in this forum
You cannot reply to topics in this forum
You cannot edit your posts in this forum
You cannot delete your posts in this forum
You cannot vote in polls in this forum
You cannot attach files in this forum
You cannot download files in this forum