Восставшие мертвецы: конец игры / Dead Rising: Endgame (Пэт Уильямс / Pat Williams) [2016, США, Ужасы, WEBRip] VO (Хихикающий доктор)

Reply to topic
 
Author
Message

Satyr ®

Gender: Unknown

Longevity: 11 years

Posts: 15401

Reputation: 55 [+] [-]

Satyr · Post 11-Sep-2016 01:24

[Quote] 

Восставшие мертвецы: конец игры / Dead Rising: Endgame
Страна: США
Жанр: Ужасы
Год выпуска: 2016
Продолжительность: 01:32:56
Перевод: Одноголосый закадровый Хихикающий доктор
Cубтитры: нет
Режиссер: Пэт Уильямс / Pat Williams
В ролях: Джесси Меткалф, Кигэн Коннор Трэйси, Джессика Хэрмон, Деннис Хейсбёрт, Мари Авгеропулос, Тич Гран, Дакота Гуппи, Стефен Лобо, Кертис Льюм, Ли Мадждуб, Хезер Руп, Патрик Сабонгуй, Джим Шилд, Донаван Стинсон, Джим Торберн
Описание: Журналист Чейз Картер снова выясняет интересные подробности о зомби-вирусе и правительстве.
Сэмпл: http://sendfile.su/1246877
Качество видео: WEBRip
Формат видео: AVI
Видео: 720x304 (2.37:1), 23.968 fps, XviD MPEG-4 ~1927 kbps avg, 0.37 bit/pixel
Аудио: 44.100 kHz, MPEG Layer 3, 2 ch, ~192.00 kbps avg

MediaInfo

General
Complete name : E:\Zona Downloads\Dead.Rising.Endgame.2016.Xixidok.avi
Format : AVI
Format/Info : Audio Video Interleave
File size : 1.38 GiB
Duration : 1h 32mn
Overall bit rate : 2 128 Kbps
Video
ID : 0
Format : MPEG-4 Visual
Format profile : Advanced Simple@L5
Format settings, BVOP : 2
Format settings, QPel : No
Format settings, GMC : No warppoints
Format settings, Matrix : Default (H.263)
Codec ID : XVID
Codec ID/Hint : XviD
Duration : 1h 32mn
Bit rate : 1 927 Kbps
Width : 720 pixels
Height : 304 pixels
Display aspect ratio : 2.35:1
Frame rate : 23.976 fps
Color space : YUV
Chroma subsampling : 4:2:0
Bit depth : 8 bits
Scan type : Progressive
Compression mode : Lossy
Bits/(Pixel*Frame) : 0.367
Stream size : 1.25 GiB (91%)
Writing library : XviD 66
Audio
ID : 1
Format : MPEG Audio
Format version : Version 1
Format profile : Layer 3
Codec ID : 55
Codec ID/Hint : MP3
Duration : 1h 32mn
Bit rate mode : Constant
Bit rate : 192 Kbps
Channel(s) : 2 channels
Sampling rate : 44.1 KHz
Compression mode : Lossy
Stream size : 128 MiB (9%)
Alignment : Split accross interleaves
Interleave, duration : 42 ms (1.00 video frame)
Interleave, preload duration : 500 ms

Скриншот c названием фильма

Скриншоты

[Profile]  [PM] 
Display posts:    
Reply to topic

Current time is: 26-Sep 11:40

All times are UTC + 2



You cannot post new topics in this forum
You cannot reply to topics in this forum
You cannot edit your posts in this forum
You cannot delete your posts in this forum
You cannot vote in polls in this forum
You cannot attach files in this forum
You cannot download files in this forum