Пассажиры / Passengers (Мортен Тильдум / Morten Tyldum) [2016, США, фантастика, драма, мелодрама, приключения, WEB-DLRip] Dub + Original Eng + Sub Rus, Eng

Reply to topic
 
Author
Message

Satyr ®

Online

Gender: Unknown

Longevity: 12 years

Posts: 17687

Reputation: 56 [+] [-]

Satyr · Post 23-Feb-2017 10:35

[Quote] 

-Пассажиры / Passengers
«Ничто не случайно»- -Страна: США
Жанр: фантастика, драма, мелодрама, приключения
Год выпуска: 2016
Продолжительность: 01:56:09-Перевод: Профессиональный (дублированный) iTunes
Cубтитры: русские (форсированные, полные), английские
Оригинальная аудиодорожка: английская-Режиссер: Мортен Тильдум / Morten Tyldum-В ролях: Дженнифер Лоуренс, Крис Пратт, Майкл Шин, Лоренс Фишбёрн, Энди Гарсиа, Винс Фостер, Кара Мишель Уайлдер, Конор Брофи, Джули Серда, Аврора Перрино-Описание: Космический корабль с 5,000 пассажиров на борту, погруженных на время полета в искусственный сон, держит курс на планету, которая станет для них новым домом. Всё идет по плану, но из-за сбоя системы двое пассажиров неожиданно просыпаются и понимают, что до конечного пункта путешествия — 90 лет пути, и им суждено остаток жизни провести вдвоем в роскошных интерьерах корабля, оснащенного по последнему слову техники. Постепенно Джима и Аврору начинает непреодолимо тянуть друг к другу, но корабль попадает в беду, и теперь в их руках — жизнь и судьба всех обитателей корабля.- --Качество видео: WEB-DLRip / Passengers 2016 1080p WEB-DL H264 AC3-EVO
Формат видео: AVI-Видео: XviD build 67, 720x304 (2.35:1), 23.976 fps, ~1897 kbps avg, 0.362 bit/pixel
Аудио 1: 48 kHz, AC3 Dolby Digital, 3/2 (L,C,R,l,r) + LFE ch, ~384 kbps avg
Аудио 2: 48 kHz, AC3 Dolby Digital, 3/2 (L,C,R,l,r) + LFE ch, ~384 kbps avg-

MediaInfo

Complete name : C:\Users\ИВАН\Desktop\Пассажиры (2016) WEB-DLRip\Пассажиры (2016) WEB-DLRip_ivanes20031987.avi
Format : AVI
Format/Info : Audio Video Interleave
Format profile : OpenDML
File size : 2.18 GiB
Duration : 1 h 56 min
Overall bit rate : 2 683 kb/s
Writing application : VirtualDubMod 1.5.10.3 | www.virtualdub-fr.org || (build 2550/release)
Writing library : VirtualDubMod build 2550/release
Video
ID : 0
Format : MPEG-4 Visual
Format profile : Advanced Simple@L5
Format settings, BVOP : 1
Format settings, QPel : No
Format settings, GMC : No warppoints
Format settings, Matrix : Custom
Codec ID : XVID
Codec ID/Hint : XviD
Duration : 1 h 56 min
Bit rate : 1 897 kb/s
Width : 720 pixels
Height : 304 pixels
Display aspect ratio : 2.35:1
Frame rate : 23.976 (24000/1001) FPS
Color space : YUV
Chroma subsampling : 4:2:0
Bit depth : 8 bits
Scan type : Progressive
Compression mode : Lossy
Bits/(Pixel*Frame) : 0.362
Stream size : 1.54 GiB (71%)
Writing library : XviD 67
Audio #1
ID : 1
Format : AC-3
Format/Info : Audio Coding 3
Mode extension : CM (complete main)
Format settings, Endianness : Big
Codec ID : 2000
Duration : 1 h 56 min
Bit rate mode : Constant
Bit rate : 384 kb/s
Channel(s) : 6 channels
Channel positions : Front: L C R, Side: L R, LFE
Sampling rate : 48.0 kHz
Frame rate : 31.250 FPS (1536 spf)
Bit depth : 16 bits
Compression mode : Lossy
Stream size : 319 MiB (14%)
Alignment : Split accross interleaves
Interleave, duration : 42 ms (1.00 video frame)
Interleave, preload duratio : 500 ms
Audio #2
ID : 2
Format : AC-3
Format/Info : Audio Coding 3
Mode extension : CM (complete main)
Format settings, Endianness : Big
Codec ID : 2000
Duration : 1 h 56 min
Bit rate mode : Constant
Bit rate : 384 kb/s
Channel(s) : 6 channels
Channel positions : Front: L C R, Side: L R, LFE
Sampling rate : 48.0 kHz
Frame rate : 31.250 FPS (1536 spf)
Bit depth : 16 bits
Compression mode : Lossy
Stream size : 319 MiB (14%)
Alignment : Split accross interleaves
Interleave, duration : 42 ms (1.00 video frame)
Interleave, preload duratio : 500 ms

Скриншоты

[Profile]  [PM] 
Display posts:    
Reply to topic

Current time is: 21-Jun 18:22

All times are UTC + 2



You cannot post new topics in this forum
You cannot reply to topics in this forum
You cannot edit your posts in this forum
You cannot delete your posts in this forum
You cannot vote in polls in this forum
You cannot attach files in this forum
You cannot download files in this forum