Гордость и предубеждение и зомби / Pride and Prejudice and Zombies (Бёрр Стирс / Burr Steers) [2016, США, ужасы, боевик, мелодрама, HDRip] Dub (R5) + Original Eng

Reply to topic
 
Author
Message

Satyr ®

Gender: Unknown

Longevity: 11 years

Posts: 15401

Reputation: 55 [+] [-]

Satyr · Post 11-Sep-2016 01:25

[Quote] 

Гордость и предубеждение и зомби / Pride and Prejudice and Zombies
Страна: США
Жанр: ужасы, боевик, мелодрама
Год выпуска: 2016
Продолжительность: 01:47:32
Перевод: Профессиональный (дублированный) R5
Cубтитры: нет
Оригинальная аудиодорожка: английский
Режиссер: Бёрр Стирс / Burr Steers
В ролях: Лили Джеймс, Сэм Райли, Белла Хиткот, Элли Бамбер, Милли Брэйди, Сьюки Уотерхаус, Дуглас Бут, Сэлли Филлипс, Чарльз Дэнс, Джек Хьюстон
Описание: Начало XIX века. На одном из бесчисленных светских раутов Элизабет Беннет встречает любовь всей своей жизни - мистера Дарси. Между обуреваемыми тайными страстями пылкими сердцами стоят гордость истинного дворянина и предубеждение благовоспитанной особы. Их чувственный и пронизанный трагическими нотками, но в то же время преисполненный светлой грусти роман развивается на фоне заполонивших сердце британской нации армии живых мертвецов.
Сэмпл: http://multi-up.com/1102304
Качество видео: HDRip (исходник не известен)
Формат видео: AVI
Видео: Xvid 720x304 23.976fps 1 819 Kbps
Аудио: Dolby AC3 48000Hz 6ch 448kbps rus
Аудио 2: Dolby AC3 48000Hz 6ch 448kbps eng

MediaInfo

Format : AVI
Format/Info : Audio Video Interleave
Format profile : OpenDML
File size : 2.05 GiB
Duration : 1h 47mn
Overall bit rate : 2 733 Kbps
Writing application : VirtualDubMod 1.5.10.2 (build 2540/release)
Writing library : VirtualDubMod build 2540/release
Video
ID : 0
Format : MPEG-4 Visual
Format profile : Advanced Simple@L5
Format settings, BVOP : Yes
Format settings, QPel : No
Format settings, GMC : No warppoints
Format settings, Matrix : Custom
Codec ID : XVID
Codec ID/Hint : XviD
Duration : 1h 47mn
Bit rate : 1 819 Kbps
Width : 720 pixels
Height : 304 pixels
Display aspect ratio : 2.35:1
Frame rate : 23.976 fps
Color space : YUV
Chroma subsampling : 4:2:0
Bit depth : 8 bits
Scan type : Progressive
Compression mode : Lossy
Bits/(Pixel*Frame) : 0.347
Stream size : 1.37 GiB (67%)
Writing library : XviD 1.2.1 (UTC 2008-12-04)
Audio #1
ID : 1
Format : AC-3
Format/Info : Audio Coding 3
Mode extension : CM (complete main)
Format settings, Endianness : Big
Codec ID : 2000
Duration : 1h 47mn
Bit rate mode : Constant
Bit rate : 448 Kbps
Channel count : 6 channels
Channel positions : Front: L C R, Side: L R, LFE
Sampling rate : 48.0 KHz
Bit depth : 16 bits
Compression mode : Lossy
Stream size : 345 MiB (16%)
Alignment : Split accross interleaves
Interleave, duration : 42 ms (1.00 video frame)
Interleave, preload duration : 500 ms
Audio #2
ID : 2
Format : AC-3
Format/Info : Audio Coding 3
Mode extension : CM (complete main)
Format settings, Endianness : Big
Codec ID : 2000
Duration : 1h 47mn
Bit rate mode : Constant
Bit rate : 448 Kbps
Channel count : 6 channels
Channel positions : Front: L C R, Side: L R, LFE
Sampling rate : 48.0 KHz
Bit depth : 16 bits
Compression mode : Lossy
Stream size : 345 MiB (16%)
Alignment : Split accross interleaves
Interleave, duration : 42 ms (1.00 video frame)
Interleave, preload duration : 500 ms

Скриншот c названием фильма

Скриншоты

[Profile]  [PM] 
Display posts:    
Reply to topic

Current time is: 24-Jan 07:23

All times are UTC + 2



You cannot post new topics in this forum
You cannot reply to topics in this forum
You cannot edit your posts in this forum
You cannot delete your posts in this forum
You cannot vote in polls in this forum
You cannot attach files in this forum
You cannot download files in this forum