(Hip-Hop / Rap / Rock) Noize MC - The Greatest Hits Vol.1 - 2008, APE (image+.cue), lossless

Reply to topic
 
Author
Message

23andrey231 ®

Gender: Unknown

Longevity: 11 years

Posts: 142

Reputation: 0 [+] [-]

23andrey231 · Post 02-Sep-2009 12:51

[Quote] 

Noize MC - The Greatest Hits Vol.1- -Жанр: Hip-Hop / Rap / Rock
Год выпуска диска: 2008
Производитель диска: Россия, "Мистерия Звука"
Аудио кодек: APE
Тип рипа: image+.cue
Битрейт аудио: lossless
Продолжительность: 01:03:11
-Трэклист-01. Песня Для Радио
02. За Закрытой Дверью
03. Из Окна
04. Москва - Не Резиновая
05. Кантемировская
06. Жизнь Без Наркотиков (feat. Маша Макарова)
07. На Районе (3 Недели Нету Плана)
08. На Работе (Платят Бабло)
09. Кури Бамбук!
10. Палево!
11. Блатняк
12. 5П (Песня П****та Про Получение Пи****лей)
13. Девочка-Скинхед
14. Наше Движение
15. Аренби!!!
16. Поднимите Руки
17. Моё Море
18. Выдыхай
19. Bonus Track: 3П (Пр****ая Песня Пиз****ола)
20. Bonus Track: Мы Всего Добились Сами

Отчёт EAC

Exact Audio Copy V0.99 prebeta 4 from 23. January 2008
Отчёт EAC об извлечении, выполненном 5. июля 2008, 3:23
Noize MC / The Greatest Hits Vol.1
Дисковод: BENQ DVD DD DW1640 Adapter: 0 ID: 1
Режим чтения : Достоверность
Использование точного потока : Да
Отключение кэша аудио : Да
Использование указателей C2 : Нет
Коррекция смещения при чтении : 618
Способность читать области Lead-in и Lead-out : Нет
Заполнение пропущенных сэмплов тишиной : Да
Удаление блоков с тишиной в начале и конце : Нет
При вычислениях CRC использовались нулевые сэмплы : Да
Интерфейс : Установленный внешний ASPI-интерфейс
Выходной формат : Внутренние WAV-операции
Формат сэмплов : 44.100 Гц; 16 бит; стерео
TOC извлечённого CD
Трек | Старт | Длительность | Начальный сектор | Конечный сектор
---------------------------------------------------------------------
1 | 0:00.00 | 2:53.09 | 0 | 12983
2 | 2:53.09 | 3:34.04 | 12984 | 29037
3 | 6:27.13 | 4:03.63 | 29038 | 47325
4 | 10:31.01 | 3:06.73 | 47326 | 61348
5 | 13:37.74 | 3:20.24 | 61349 | 76372
6 | 16:58.23 | 3:41.26 | 76373 | 92973
7 | 20:39.49 | 3:35.69 | 92974 | 109167
8 | 24:15.43 | 2:29.55 | 109168 | 120397
9 | 26:45.23 | 2:31.13 | 120398 | 131735
10 | 29:16.36 | 3:16.14 | 131736 | 146449
11 | 32:32.50 | 3:18.64 | 146450 | 161363
12 | 35:51.39 | 3:05.41 | 161364 | 175279
13 | 38:57.05 | 3:38.34 | 175280 | 191663
14 | 42:35.39 | 2:45.15 | 191664 | 204053
15 | 45:20.54 | 1:23.36 | 204054 | 210314
16 | 46:44.15 | 2:25.13 | 210315 | 221202
17 | 49:09.28 | 2:33.54 | 221203 | 232731
18 | 51:43.07 | 11:27.55 | 232732 | 284311
Характеристики диапазона извлечения и сообщения об ошибках
Выбранный диапазон
Имя файла D:\My Music\WAV\Noize MC - The Greatest Hits Vol.1.wav
Пиковый уровень 99.9 %
Качество диапазона 100.0 %
CRC теста B2919914
CRC копии B2919914
Копирование... OK
Ошибок не произошло
Конец отчёта
[Profile]  [PM] 
Display posts:    
Reply to topic

Current time is: 14-May 19:48

All times are UTC + 2



You cannot post new topics in this forum
You cannot reply to topics in this forum
You cannot edit your posts in this forum
You cannot delete your posts in this forum
You cannot vote in polls in this forum
You cannot attach files in this forum
You cannot download files in this forum