Вуаль / The Veil (Фил Джоану / Phil Joanou) [2016, США, ужасы, HDRip] DVO (den904 & DeadSno)

Reply to topic
 
Author
Message

Satyr ®

Gender: Unknown

Longevity: 11 years

Posts: 15401

Reputation: 55 [+] [-]

Satyr · Post 11-Sep-2016 01:26

[Quote] 

Вуаль / The Veil Страна: США
Жанр: ужасы
Год выпуска: 2016
Продолжительность: 01:33:33
Перевод: Любительский (двухголосый закадровый) den904 & DeadSno
Cубтитры: нет
Оригинальная аудиодорожка: нет
Режиссер: Фил Джоану / Phil JoanouВ ролях:
Джессика Альба / Jessica Alba - Maggie Price
Томас Джейн / Thomas Jane - Jim Jacobs
Лили Рэйб / Lily Rabe - Sarah Hope
Шеннон Мари Вудворд / Shannon Marie Woodward - Jill
Рейд Скотт / Reid Scott - Nick
Алекса Палладино / Aleksa Palladino - Karen Sweetzer
Ленни Джейкобсон / Lenny Jacobson - Ed
Описание: Спустя тридцать лет после того, как члены религиозного культа совершили массовое самоубийство, единственный выживший из них возвращается на место трагедии, прихватив с собой группу кинодокументалистов.
Группа желает всем приятного просмотра!
Качество видео: HDRip / BDRip (1080p)
Формат видео: AVI
Видео: 720x304 (2.37:1), 23.976 fps, XviD build 65 ~1999 kbps avg, 0.38 bit/pixel
Audio: 48 kHz, AC3 Dolby Digital, 2/0 (L,R) ch, ~192 kbps

MediaInfo

General
Complete name : C:\Users\Никита\Desktop\вуаль.avi
Format : AVI
Format/Info : Audio Video Interleave
File size : 1.44 GiB
Duration : 1h 33mn
Overall bit rate : 2 201 Kbps
Writing application : VirtualDubMod 1.5.10.2 (build 2540/release)
Writing library : VirtualDubMod build 2540/release
Video
ID : 0
Format : MPEG-4 Visual
Format profile : Advanced Simple@L5
Format settings, BVOP : 1
Format settings, QPel : No
Format settings, GMC : No warppoints
Format settings, Matrix : Custom
Codec ID : XVID
Codec ID/Hint : XviD
Duration : 1h 33mn
Bit rate : 1 999 Kbps
Width : 720 pixels
Height : 304 pixels
Display aspect ratio : 2.35:1
Frame rate : 23.976 (24000/1001) fps
Color space : YUV
Chroma subsampling : 4:2:0
Bit depth : 8 bits
Scan type : Progressive
Compression mode : Lossy
Bits/(Pixel*Frame) : 0.381
Stream size : 1.31 GiB (91%)
Writing library : XviD 65
Audio
ID : 1
Format : AC-3
Format/Info : Audio Coding 3
Mode extension : CM (complete main)
Format settings, Endianness : Big
Codec ID : 2000
Duration : 1h 33mn
Bit rate mode : Constant
Bit rate : 192 Kbps
Channel(s) : 2 channels
Channel positions : Front: L R
Sampling rate : 48.0 KHz
Frame rate : 31.250 fps (1536 spf)
Compression mode : Lossy
Stream size : 128 MiB (9%)
Alignment : Split accross interleaves
Interleave, duration : 42 ms (1.00 video frame)
Interleave, preload duratio : 500 ms

Скриншоты

[Profile]  [PM] 
Display posts:    
Reply to topic

Current time is: 22-Sep 15:20

All times are UTC + 2



You cannot post new topics in this forum
You cannot reply to topics in this forum
You cannot edit your posts in this forum
You cannot delete your posts in this forum
You cannot vote in polls in this forum
You cannot attach files in this forum
You cannot download files in this forum