Чудо на Гудзоне / Sully (Клинт Иствуд / Clint Eastwood) [2016, США, драма, биография, HDRip] Dub (iTunes) + Sub Rus

Reply to topic
 
Author
Message

Satyr ®

Gender: Unknown

Longevity: 11 years

Posts: 15401

Reputation: 55 [+] [-]

Satyr · Post 07-Dec-2016 23:25

[Quote] 

Чудо на Гудзоне / Sully
Страна: США / Warner Bros. Pictures
Жанр: драма, биография
Год выпуска: 2016
Продолжительность: 01:35:50
Перевод: Профессиональный (дублированный) iTunes
Cубтитры: Русские форсированные (отдельно)
Режиссер: Клинт Иствуд / Clint Eastwood
В ролях: Том Хэнкс, Аарон Экхарт, Валери Махаффей, Делфи Хэррингтон, Майк О`Мэлли, Джейми Шеридан, Анна Ганн, Холт МакКэллани, Ахмед Хуссэйн, Лора Линни
Описание: Герой Том Хэнкса - рядовой лётчик-профессионал, которому в сложнейшей ситуации пришлось принять единственно правильное решение, которое оправдалось конечным результатом – посадкой аварийного самолёта с пассажирами на воды Гудзона. Так, своими действиями летчику удалось спасти 155 человеческих жизней! И, тем не менее, сегодня ему приходится доказывать правоту этого выбора, внешне оставаясь спокойным и невозмутимым, несмотря на пережитое потрясение. Он уверен - только спокойствием, выдержкой и хладнокровием можно перевесить чашу мнения членов комиссии на свою сторону – сторону профессионального выбора и действия. И только ему одному известно, как даются и чего стоят эти спокойствие и уравновешенность. Оправданно ли рисковал ли он людскими жизнями? Чтобы их спасти, у него просто не было другого выхода.
Сэмпл
Качество видео: HDRip
Формат видео: AVI
Видео: 688x288 (2.39:1), 23.976 fps, XviD build 73 ~954 kbps avg, 0.20 bit/pixel
Аудио: 48 kHz, MPEG Layer 3, 2 ch, ~128.00 kbps avg - iTunes-

MediaInfo

ОбщееПолное имя                               : D:\Sully.2016.HDRip.745MB.MegaPeer\Sully.2016.HDRip.745MB.MegaPeer.aviФормат                                   : AVIФормат/Информация                        : Audio Video InterleaveРазмер файла                             : 746 МбайтПродолжительность                        : 1 ч. 35 м.Общий поток                              : 1088 Кбит/сек
ВидеоИдентификатор : 0Формат : MPEG-4 VisualПрофиль формата : Advanced Simple@L5Параметр BVOP формата : 1Параметр QPel формата : НетПараметр GMC формата : Без точки переходаПараметр матрицы формата : ВыборочнаяИдентификатор кодека : XVIDИдентификатор кодека/Подсказка : XviDПродолжительность : 1 ч. 35 м.Битрейт : 954 Кбит/секШирина : 688 пикселейВысота : 288 пикселейСоотношение сторон : 2,40:1Частота кадров : 23,976 (24000/1001) кадра/секЦветовое пространство : YUVСубдискретизация насыщенности : 4:2:0Битовая глубина : 8 битТип развёртки : ПрогрессивнаяМетод сжатия : С потерямиБит/(Пиксели*Кадры) : 0.201Размер потока : 654 Мбайт (88%)Библиотека кодирования : XviD 73
АудиоИдентификатор : 1Формат : MPEG AudioВерсия формата : Version 1Профиль формата : Layer 3Режим : Joint stereoРасширение режима : MS StereoИдентификатор кодека : 55Идентификатор кодека/Подсказка : MP3Продолжительность : 1 ч. 35 м.Вид битрейта : ПостоянныйБитрейт : 128 Кбит/секКаналы : 2 каналаЧастота : 48,0 КГцМетод сжатия : С потерямиРазмер потока : 87,7 Мбайт (12%)Выравнивание : Соединение по промежуткамПродолжительность промежутка : 167 мс. (4,00 видеокадра)Время предзагрузки промежутка : 216 мс.Заголовок : iTunesБиблиотека кодирования : LAME3.99rНастройки программы : -m j -V 4 -q 2 -lowpass 17 -b 128

Скриншоты

-
[Profile]  [PM] 
Display posts:    
Reply to topic

Current time is: 18-Sep 16:26

All times are UTC + 2



You cannot post new topics in this forum
You cannot reply to topics in this forum
You cannot edit your posts in this forum
You cannot delete your posts in this forum
You cannot vote in polls in this forum
You cannot attach files in this forum
You cannot download files in this forum