Сирена / SiREN (Грегг Бишоп / Gregg Bishop) [2016,США, Ужасы, WEB-DLRip] MVO (Синема УС) + Original

Reply to topic
 
Author
Message

Satyr ®

Gender: Unknown

Longevity: 12 years

Posts: 17692

Reputation: 56 [+] [-]

Satyr · Post 23-Feb-2017 10:35

[Quote] 

Сирена / SiREN
Страна: США
Жанр: Ужасы
Год выпуска: 2016
Продолжительность: 01:22:50
Перевод: Любительский (многоголосый закадровый) - (Синема УС)
Cубтитры: нет
Оригинальная аудиодорожка: Английский
Режиссер: Грегг Бишоп / Gregg Bishop
В ролях: Ханна Файрман, Чейз Уильямсон, Джастин Уэлборн, Майкл Аарон Миллиган, Хэйес Меркюр, Рэнди Макдауэлл, Линдси Гаррет, Марк МакКалло, Стивен Кодилл, Элиз Дюфур
Описание: У парня с необычным именем Джона на носу свадьба. Его брат-тусовщик Мак пытается устроить крутой мальчишник с друзьями Джоны - Рэндом и Эллиотом. Вчетвером они оказываются в странноватом заведении и вляпываются в нехорошую историю: хотели вызволить из неволи девушку Лили, но разозлили её владельца Мистера Никса. Начинаются мрачные злоключения, но в целом этот фильм про настоящую и нерушимую женскую любовь.
Сэмпл: http://multi-up.com/1141844
Качество видео: WEB-DLRip
Исходник: SiREN.2016.1080p.WEB-DL.DD5.1.H264-FGT
Формат видео: AVI
Видео: 720x400 (1.80:1), 23.976 fps, XviD build 65 ~1965 kbps avg, 0.28 bit/pixel
Аудио RUS: 48 kHz, MPEG Layer 3, 2 ch, ~128.00 kbps avg
Audio ENG: 48 kHz, AC3 Dolby Digital, 3/2 (L,C,R,l,r) + LFE ch, ~384 kbps
Rip by Ториял для

MediaInfo

ормат : AVI
Формат/Информация : Audio Video Interleave
Размер файла : 1,44 Гбайт
Продолжительность : 1 ч. 22 м.
Общий поток : 2493 Кбит/сек
Программа кодирования : VirtualDubMod 1.5.10.2 (build 2540/release)
Библиотека кодирования : VirtualDubMod build 2540/release
Видео
Идентификатор : 0
Формат : MPEG-4 Visual
Профиль формата : Advanced Simple@L5
Параметр BVOP формата : 1
Параметр QPel формата : Нет
Параметр GMC формата : Без точки перехода
Параметр матрицы формата : Выборочная
Идентификатор кодека : XVID
Идентификатор кодека/Подсказка : XviD
Продолжительность : 1 ч. 22 м.
Битрейт : 1967 Кбит/сек
Ширина : 720 пикселей
Высота : 400 пикселей
Соотношение сторон : 16:9
Частота кадров : 23,976 (24000/1001) кадра/сек
Цветовое пространство : YUV
Субдискретизация насыщенности : 4:2:0
Битовая глубина : 8 бит
Тип развёртки : Прогрессивная
Метод сжатия : С потерями
Бит/(Пиксели*Кадры) : 0.285
Размер потока : 1,14 Гбайт (79%)
Библиотека кодирования : XviD 65
Аудио #1
Идентификатор : 1
Формат : MPEG Audio
Версия формата : Version 1
Профиль формата : Layer 3
Идентификатор кодека : 55
Идентификатор кодека/Подсказка : MP3
Продолжительность : 1 ч. 22 м.
Вид битрейта : Постоянный
Битрейт : 128 Кбит/сек
Каналы : 2 канала
Частота : 48,0 КГц
Метод сжатия : С потерями
Размер потока : 75,9 Мбайт (5%)
Выравнивание : Соединение по промежуткам
Продолжительность промежутка : 42 мс. (1,00 видеокадр)
Время предзагрузки промежутка : 504 мс.
Аудио #2
Идентификатор : 2
Формат : AC-3
Формат/Информация : Audio Coding 3
Расширение режима : CM (complete main)
Параметр Endianness формата : Big
Идентификатор кодека : 2000
Продолжительность : 1 ч. 22 м.
Вид битрейта : Постоянный
Битрейт : 384 Кбит/сек
Каналы : 6 каналов
Расположение каналов : Front: L C R, Side: L R, LFE
Частота : 48,0 КГц
Частота кадров : 31,250 кадров/сек (1536 spf)
Битовая глубина : 16 бит
Метод сжатия : С потерями
Размер потока : 228 Мбайт (15%)
Выравнивание : Разделение по промежуткам
Продолжительность промежутка : 42 мс. (1,00 видеокадр)
Время предзагрузки промежутка : 500 мс.

Скриншоты

[Profile]  [PM] 
Display posts:    
Reply to topic

Current time is: 23-Jun 08:15

All times are UTC + 2



You cannot post new topics in this forum
You cannot reply to topics in this forum
You cannot edit your posts in this forum
You cannot delete your posts in this forum
You cannot vote in polls in this forum
You cannot attach files in this forum
You cannot download files in this forum