Жертва / Sacrifice (Питер Э. Даулинг / Peter A. Dowling) [2016, Ирландия, Триллер, HDRip] VO (Cmert) + Original Eng

Reply to topic
 
Author
Message

Satyr ®

Gender: Unknown

Longevity: 11 years

Posts: 15401

Reputation: 55 [+] [-]

Satyr · Post 16-Dec-2016 20:00

[Quote] 

Жертва / Sacrifice
Страна: Ирландия
Жанр: Триллер
Год выпуска: 2016
Продолжительность: 01:31:06
Перевод: Одноголосый закадровый Cmert
Cубтитры: нет
Оригинальная аудиодорожка: английский
Режиссер: Питер Э. Даулинг / Peter A. Dowling
В ролях: Рада Митчелл, Руперт Грейвз, Йен МакЭлхинни, Дэвид Робб, Лайам Карни, Питер Фоллебрегт, Деклан Конлон, Леса Турман Конор Маллен, Джоэнн Кроуфорд
Описание: Консультирующий хирург Тора Гамильтон вместе с мужем Данканом переезжает на удаленные Шетландские острова, в 100 милях от северо-восточного побережья Шотландии. На территории своего нового дома Тора находит изрезанное руническими знаками тело молодой женщины, вместо сердца у которой — дыра. Не обращая внимания на предупреждения оставить все как есть, Тора все ближе подбирается к страшнейшей легенде, которую никто и никогда не осмелился бы записать.
Озвучил от сюда http://torrentsland.com.ua/forum/viewtopic.php?t=5288750
Сэмпл: http://multi-up.com/1130710
Качество видео: HDRip
Формат видео: AVI
Видео: 720x304 (2.37:1), 23.976 fps, XviD build 66 ~1634 kbps avg, 0.31 bit/pixel
Аудио: 44.100 kHz, MPEG Layer 3, 2 ch, ~128.00 kbps avg Cmert
Аудио 2: 48 kHz, AC3 Dolby Digital, 3/2 (L,C,R,l,r) + LFE ch, ~448 kbps

MediaInfo

Format : AVI
Format/Info : Audio Video Interleave
File size : 1.42 GiB
Duration : 1h 31mn
Overall bit rate : 2 226 Kbps
Writing application : VirtualDubMod 1.5.10.2 (build 2540/release)
Writing library : VirtualDubMod build 2540/release
Video
ID : 0
Format : MPEG-4 Visual
Format profile : Advanced Simple@L5
Format settings, BVOP : 2
Format settings, QPel : No
Format settings, GMC : No warppoints
Format settings, Matrix : Default (H.263)
Codec ID : XVID
Codec ID/Hint : XviD
Duration : 1h 31mn
Bit rate : 1 636 Kbps
Width : 720 pixels
Height : 304 pixels
Display aspect ratio : 2.35:1
Frame rate : 23.976 fps
Color space : YUV
Chroma subsampling : 4:2:0
Bit depth : 8 bits
Scan type : Progressive
Compression mode : Lossy
Bits/(Pixel*Frame) : 0.312
Stream size : 1.04 GiB (73%)
Writing library : XviD 66
Audio #1
ID : 1
Format : MPEG Audio
Format version : Version 1
Format profile : Layer 3
Mode : Joint stereo
Mode extension : MS Stereo
Codec ID : 55
Codec ID/Hint : MP3
Duration : 1h 31mn
Bit rate mode : Constant
Bit rate : 128 Kbps
Channel(s) : 2 channels
Sampling rate : 44.1 KHz
Compression mode : Lossy
Stream size : 83.4 MiB (6%)
Alignment : Split accross interleaves
Interleave, duration : 42 ms (1.00 video frame)
Interleave, preload duratio : 500 ms
Audio #2
ID : 2
Format : AC-3
Format/Info : Audio Coding 3
Mode extension : CM (complete main)
Format settings, Endianness : Big
Codec ID : 2000
Duration : 1h 31mn
Bit rate mode : Constant
Bit rate : 448 Kbps
Channel(s) : 6 channels
Channel positions : Front: L C R, Side: L R, LFE
Sampling rate : 48.0 KHz
Bit depth : 16 bits
Compression mode : Lossy
Stream size : 292 MiB (20%)
Alignment : Aligned on interleaves
Interleave, duration : 42 ms (1.00 video frame)
Interleave, preload duratio : 512 ms

Скриншот c названием фильма

Скриншоты

[Profile]  [PM] 
Display posts:    
Reply to topic

Current time is: 25-Sep 04:26

All times are UTC + 2



You cannot post new topics in this forum
You cannot reply to topics in this forum
You cannot edit your posts in this forum
You cannot delete your posts in this forum
You cannot vote in polls in this forum
You cannot attach files in this forum
You cannot download files in this forum