Отступники / The Departed (Мартин Скорсезе / Martin Scorsese) [2006, триллер, криминал, драма, Blu-ray disc (custom) 1080p] DUB + MVO (Ru, Ukr) + AVO (Ю. Немахов, А. Гаврилов)) + Origin (en) + Subs

Reply to topic
 
Author
Message

Satyr ®

Gender: Unknown

Longevity: 11 years

Posts: 15402

Reputation: 55 [+] [-]

Satyr · Post 18-Sep-2011 01:22

[Quote] 

Отступники / The Departed-«No one gives it to you, you have to take it»
Русское название: Отступники
Оригинальное название: The Departed
Год выпуска: 2006, США, Гонконг (Initial Entertainment Group (IEG), Media Asia Films Ltd.)
Жанр: триллер, криминал, драма
Продолжительность: 02:31:19
Перевод: Профессиональный (дубляж (МОСФИЛЬМ-Мастер), многоголосый закадровый (Ru, Ukr) /, одноголосый закадровый (Ю.Немахов, А. Гаврилов)
Русские субтитры::есть
Субтитры:: Английский, болгарский, хорватский, чешский, греческий, иврит, венгерский, исландский, польский, португальский, румынский, русский, сербский, словенский, турецкий, украинский языкОписание фильма:Два лучших выпускника полицейской академии оказались по разные стороны баррикады: один из них — агент мафии в рядах правоохранительных органов, другой — «крот», внедрённый в мафию. Каждый считает своим долгом обнаружить и уничтожить противника, но постоянная жизнь в искажённых реалиях меняет внутренний мир героев...…
Режиссер: Мартин Скорсезе / Martin Scorsese
Сценарий: Уильям Монахэн / William Monahan
В ролях: Леонардо Ди Каприо, Мэтт Дэймон, Джек Николсон, Марк Уолберг, Мартин Шин, Рэй Уинстон, Вера Фармига, Энтони Андерсон, Алек Болдуин, Кевин Корригэн, Джеймс Бэдж Дэйл, Дэвид О`Хара, Марк Ролстон, Роберт Уолберг, Кристен Далтон…
Качество видео:Blu-ray
Видеокодек: VC-1 Video
Формат: BDMV
Видео: VC-1 Video / 14,869 Мбит/сек / 1920 x1080 (16:9) / 23.976 fps / 0.552 bit/pixel
Аудиокодек: AC3, DTS
Аудио :
Аудио#1:Russian DTS-HD Master Audio, 1784 kbps, 5.1 / 48 kHz / 1784 kbps / 16-bit (DTS Core: 5.1 / 48 kHz / 768 kbps / 16-bit) (MVO - Гланц)
Аудио#2:English Dolby TrueHD Audio, 1464 kbps, 5.1 / 48 kHz / 1464 kbps / 16-bit (AC3 Embedded: 5.1 / 48 kHz / 640 kbps / DN -4dB)
Аудио#3:Russian DTS Audio, 768 kbps, 5.1 / 48 kHz / 768 kbps / 24-bit (DUB)
Аудио#4:Russian DTS Audio, 768 kbps, 5.1 / 48 kHz / 768 kbps / 24-bit (VO - Ю. Немахов)
Аудио#5:Russian Dolby Digital Audio, 384 kbps, 5.1 / 48 kHz / 384 kbps (VO - А. Гаврилов)
Аудио#6:Ukrainian Dolby Digital Audio, 384 kbps, 2.1 / 48 kHz / 384 kbps (MVO)
Субтитры:(PGS): Английский, болгарский, хорватский, чешский, греческий, иврит, венгерский, исландский, польский, португальский, румынский, русский, сербский, словенский, турецкий, украинский язык

Дополнительные материалы:


• "Криминальный Бостон" - документальный фильм о прототипах главных героев фильма;
• "Криминальная культура" - рассказ о съёмках фильма с комментариями режиссёра и актёров;
• "Вырезаные сцены" - с комментариями режиссёра;
• "Скорсезе о Скорсезе" - документальный фильм о творчестве и жизни выдающегося режиссёра.

Диск пересобран из оригинального блурэя, используемое програмное обеспечение: BD reauthor (DVDLogic), Sonic Scenarist, Adobe Photoshop, Sony Sound Forge, Eac3to, Wawtoac3 encoder, DTS-HD Suite, PGC Demux, Prosoniq Time Factory, SubRip, Subtitle Workshop. Структура диска полностью сохранена.
Воспроизведение проверено на Arcsoft Total Media Player 3 Platinum, Power DVD, Scenarist QC 1.1 и бытовом блурей плеере SONY BDP-S550. (Содержимое папки "AACS" перенесено в "ANY!")
В месте (20 сек) отсутствия дубляжа, Немахова и украинской дорожки - Гланц
Полная версия (20.5 сек длиннее обычной) с лучшим из существующих на данный момент видео-рядом!
Русский DTS-HD МА получен микшированием чистого голоса переводчиков с каналом оригинальной ХД дорожки.

Знаете ли вы, что:


* Изначально съёмки картины должны были пройти в Бостоне, где и развиваются события фильма, но из-за финансовых соображений основная часть съёмок прошла в Нью-Йорке.
* Изначально роль Квина должен был исполнить Геральд МакСорли, но не смог принять участия в фильме из-за занятости на других проектах.
* Для того чтобы лучше подготовиться к роли, Мэтт Дэймон некоторое время работал в одном из массачусетских отделений полиции.
* Изначально Джек Николсон отверг предложение сниматься в данном фильме, но после встречи с Мартином Скорсезе и Леонардо Ди Каприо, он согласился сыграть Фрэнка Костелло. Джек передумал, потому что, по его словам, в последнее время он слишком часто снимался в комедиях, и ему снова захотелось исполнить роль злодея.
* Роберт Де Ниро мог исполнить одну из ролей в фильме.
* Том Даффи был техническим консультантом на проекте. Он проработал почти тридцать лет в полиции и занимался организованной преступностью. Том также принимал участие в поимке известного бостонского гангстера Уайти Балгера, образ которого частично лег в основу Фрэнка Костелло (Джек Николсон).
* Роль Мэделин могла достаться Кэйт Уинслет и Хилари Суонк.
* Изначально Леонардо Ди Каприо должен был принять участие в фильме «С наилучшими пожеланиями» (съёмки которого проходили одновременно со съёмками «Отступников»), но отказался от роли, предпочтя сыграть Билли Костигана в данной картине.
* Фильм открывается «Gimme Shelter», классической мелодией группы «Rolling Stones». В саундтреке к фильму она отсутствует; ее место занимает «Comfortably Numb» в исполнении Роджера Уотерса и Вана Моррисона.
* Слово «fuck» произносится в картине 237 раз.

MediaInfo



Формат : BDAV
Формат/Информация : Blu-ray Video
Размер файла : 25,1 ГиБ
Продолжительность : 2 ч. 31 м.
Общий поток : 23,8 Мбит/сек
Максимальный общий битрейт : 48,0 Мбит/сек
Видео
Идентификатор : 4113 (0x1011)
Идентификатор меню : 1 (0x1)
Формат : VC-1
Профайл формата : AP@L3
Идентификатор кодека : 234
Продолжительность : 2 ч. 31 м.
Ширина : 1920 пикс.
Высота : 1080 пикс.
Соотношение кадра : 16:9
Частота кадров : 23,976 кадр/сек
ChromaSubsampling : 4:2:0
BitDepth/String : 8 бит
Тип развёртки : Прогрессивная
Аудио #1
Идентификатор : 4352 (0x1100)
Идентификатор меню : 1 (0x1)
Формат : AC-3
Формат/Информация : Audio Coding 3
Профайл формата : TrueHD / Core
Format_Settings_ModeExtension : CM (complete main)
Режим смешивания : Stream extension
Идентификатор кодека : 131
Продолжительность : 2 ч. 31 м.
Вид битрейта : Переменный / Постоянный
Битрейт : Variable / 640 Кбит/сек
Максимальный битрейт : 2874 Кбит/сек / 640 Кбит/сек
Канал(ы) : 6 канала(ов)
Расположение каналов : Front: L C R, Side: L R, LFE
Частота : 48,0 КГц
BitDepth/String : 16 бит
Аудио #2
Идентификатор : 4353 (0x1101)
Идентификатор меню : 1 (0x1)
Формат : DTS
Формат/Информация : Digital Theater Systems
Профайл формата : MA
Режим смешивания : Stream extension
Идентификатор кодека : 134
Продолжительность : 2 ч. 31 м.
Вид битрейта : Переменный
Канал(ы) : 6 канала(ов)
Расположение каналов : Front: L C R, Side: L R, LFE
Частота : 48,0 КГц
BitDepth/String : 16 бит
Аудио #3
Идентификатор : 4354 (0x1102)
Идентификатор меню : 1 (0x1)
Формат : DTS
Формат/Информация : Digital Theater Systems
Идентификатор кодека : 130
Продолжительность : 2 ч. 31 м.
Вид битрейта : Постоянный
Битрейт : 755 Кбит/сек
Канал(ы) : 6 канала(ов)
Расположение каналов : Front: L C R, Side: L R, LFE
Частота : 48,0 КГц
BitDepth/String : 24 бит
Размер потока : 817 МиБ (3%)
Аудио #4
Идентификатор : 4355 (0x1103)
Идентификатор меню : 1 (0x1)
Формат : AC-3
Формат/Информация : Audio Coding 3
Format_Settings_ModeExtension : CM (complete main)
Идентификатор кодека : 129
Продолжительность : 2 ч. 31 м.
Вид битрейта : Постоянный
Битрейт : 384 Кбит/сек
Канал(ы) : 3 канала(ов)
Расположение каналов : Front: L R, LFE
Частота : 48,0 КГц
BitDepth/String : 16 бит
Размер потока : 416 МиБ (2%)
Аудио #5
Идентификатор : 4356 (0x1104)
Идентификатор меню : 1 (0x1)
Формат : AC-3
Формат/Информация : Audio Coding 3
Format_Settings_ModeExtension : CM (complete main)
Идентификатор кодека : 129
Продолжительность : 2 ч. 31 м.
Вид битрейта : Постоянный
Битрейт : 384 Кбит/сек
Канал(ы) : 6 канала(ов)
Расположение каналов : Front: L C R, Side: L R, LFE
Частота : 48,0 КГц
BitDepth/String : 16 бит
Размер потока : 416 МиБ (2%)
Аудио #6
Идентификатор : 4357 (0x1105)
Идентификатор меню : 1 (0x1)
Формат : DTS
Формат/Информация : Digital Theater Systems
Идентификатор кодека : 130
Продолжительность : 2 ч. 31 м.
Вид битрейта : Постоянный
Битрейт : 755 Кбит/сек
Канал(ы) : 6 канала(ов)
Расположение каналов : Front: L C R, Side: L R, LFE
Частота : 48,0 КГц
BitDepth/String : 24 бит
Размер потока : 817 МиБ (3%)
Текст #1
Идентификатор : 4608 (0x1200)
Идентификатор меню : 1 (0x1)
Формат : PGS
Идентификатор кодека : 144
Текст #2
Идентификатор : 4609 (0x1201)
Идентификатор меню : 1 (0x1)
Формат : PGS
Идентификатор кодека : 144
Текст #3
Идентификатор : 4610 (0x1202)
Идентификатор меню : 1 (0x1)
Формат : PGS
Идентификатор кодека : 144
Текст #4
Идентификатор : 4611 (0x1203)
Идентификатор меню : 1 (0x1)
Формат : PGS
Идентификатор кодека : 144
Текст #5
Идентификатор : 4612 (0x1204)
Идентификатор меню : 1 (0x1)
Формат : PGS
Идентификатор кодека : 144
Текст #6
Идентификатор : 4613 (0x1205)
Идентификатор меню : 1 (0x1)
Формат : PGS
Идентификатор кодека : 144
Текст #7
Идентификатор : 4614 (0x1206)
Идентификатор меню : 1 (0x1)
Формат : PGS
Идентификатор кодека : 144
Текст #8
Идентификатор : 4615 (0x1207)
Идентификатор меню : 1 (0x1)
Формат : PGS
Идентификатор кодека : 144
Текст #9
Идентификатор : 4616 (0x1208)
Идентификатор меню : 1 (0x1)
Формат : PGS
Идентификатор кодека : 144
Текст #10
Идентификатор : 4617 (0x1209)
Идентификатор меню : 1 (0x1)
Формат : PGS
Идентификатор кодека : 144
Текст #11
Идентификатор : 4618 (0x120A)
Идентификатор меню : 1 (0x1)
Формат : PGS
Идентификатор кодека : 144
Текст #12
Идентификатор : 4619 (0x120B)
Идентификатор меню : 1 (0x1)
Формат : PGS
Идентификатор кодека : 144
Текст #13
Идентификатор : 4620 (0x120C)
Идентификатор меню : 1 (0x1)
Формат : PGS
Идентификатор кодека : 144
Текст #14
Идентификатор : 4621 (0x120D)
Идентификатор меню : 1 (0x1)
Формат : PGS
Идентификатор кодека : 144
Текст #15
Идентификатор : 4622 (0x120E)
Идентификатор меню : 1 (0x1)
Формат : PGS
Идентификатор кодека : 144
Текст #16
Идентификатор : 4623 (0x120F)
Идентификатор меню : 1 (0x1)
Формат : PGS
Идентификатор кодека : 144

BDInfo:


Disc Title: The_DEPARTED_BD
********************
PLAYLIST: 00001.MPLS
********************
Total   Video
Title                                                           Codec   Length  Movie Size      Disc Size       Bitrate Bitrate Main Audio Track                          Secondary Audio Track
-----                                                           ------  ------- --------------  --------------  ------- ------- ------------------                        ---------------------
00001.MPLS                                                      VC-1    2:31:19 26 968 909 824  36 232 261 880  23,76   14,87   DTS-HD Master 5.1 1784Kbps (48kHz/16-bit) DTS 5.1 768Kbps (48kHz/24-bit)
DISC INFO:
Disc Title:     The_DEPARTED_BD_BLUEBIRD
Disc Size:      36 232 261 880 bytes
Protection:     AACS
BD-Java:        No
BDInfo:         0.5.5
PLAYLIST REPORT:
Name:                   00001.MPLS
Length:                 2:31:19 (h:m:s)
Size:                   26 968 909 824 bytes
Total Bitrate:          23,76 Mbps
VIDEO:
Codec                   Bitrate             Description
-----                   -------             -----------
VC-1 Video              14869 kbps          1080p / 23,976 fps / 16:9 / Advanced Profile 3
AUDIO:
Codec                           Language        Bitrate         Description
-----                           --------        -------         -----------
DTS-HD Master Audio             Russian         1784 kbps       5.1 / 48 kHz / 1784 kbps / 16-bit (DTS Core: 5.1 / 48 kHz / 768 kbps / 16-bit)
Dolby TrueHD Audio              English         1464 kbps       5.1 / 48 kHz / 1464 kbps / 16-bit (AC3 Embedded: 5.1 / 48 kHz / 640 kbps / DN -4dB)
DTS Audio                       Russian         768 kbps        5.1 / 48 kHz / 768 kbps / 24-bit
DTS Audio                       Russian         768 kbps        5.1 / 48 kHz / 768 kbps / 24-bit
Dolby Digital Audio             Russian         384 kbps        5.1 / 48 kHz / 384 kbps
Dolby Digital Audio             Ukrainian       384 kbps        2.1 / 48 kHz / 384 kbps
SUBTITLES:
Codec                           Language        Bitrate         Description
-----                           --------        -------         -----------
Presentation Graphics           English         37,859 kbps
Presentation Graphics           Bulgarian       26,087 kbps
Presentation Graphics           Croatian        27,098 kbps
Presentation Graphics           Czech           27,962 kbps
Presentation Graphics           Greek           28,920 kbps
Presentation Graphics           Hebrew          25,996 kbps
Presentation Graphics           Hungarian       29,726 kbps
Presentation Graphics           Icelandic       29,871 kbps
Presentation Graphics           Polish          27,840 kbps
Presentation Graphics           Portuguese      28,356 kbps
Presentation Graphics           Romanian        35,982 kbps
Presentation Graphics           Russian         34,918 kbps
Presentation Graphics           Serbian         26,784 kbps
Presentation Graphics           Slovenian       26,920 kbps
Presentation Graphics           Turkish         35,388 kbps
Presentation Graphics           Ukrainian       34,771 kbps
FILES:
Name            Time In         Length          Size            Total Bitrate
----            -------         ------          ----            -------------
00021.M2TS      0:00:00.000     2:31:19.028     26 968 909 824  23 764
CHAPTERS:
Number          Time In         Length          Avg Video Rate  Max 1-Sec Rate  Max 1-Sec Time  Max 5-Sec Rate  Max 5-Sec Time  Max 10Sec Rate  Max 10Sec Time  Avg Frame Size  Max Frame Size  Max Frame Time
------          -------         ------          --------------  --------------  --------------  --------------  --------------  --------------  --------------  --------------  --------------  --------------
1               0:00:00.000     0:05:03.636     14 814 kbps     34 133 kbps     00:04:23.513    23 621 kbps     00:04:19.509    22 702 kbps     00:04:14.504    77 737 bytes    547 444 bytes   00:04:23.554
2               0:05:03.636     0:03:48.895     17 596 kbps     32 390 kbps     00:06:05.156    24 008 kbps     00:06:01.194    22 403 kbps     00:06:00.735    91 739 bytes    536 716 bytes   00:06:51.828
3               0:08:52.531     0:06:03.529     16 529 kbps     28 834 kbps     00:12:47.600    24 262 kbps     00:12:47.600    21 283 kbps     00:12:47.433    86 177 bytes    405 150 bytes   00:12:36.380
4               0:14:56.061     0:04:15.755     15 448 kbps     28 969 kbps     00:18:48.752    24 489 kbps     00:19:01.181    22 644 kbps     00:19:01.181    80 536 bytes    411 836 bytes   00:17:09.820
5               0:19:11.817     0:04:50.456     16 351 kbps     24 348 kbps     00:22:27.637    22 872 kbps     00:22:24.801    22 278 kbps     00:22:21.256    85 244 bytes    341 275 bytes   00:19:21.660
6               0:24:02.274     0:01:59.786     15 730 kbps     26 651 kbps     00:24:05.444    22 992 kbps     00:24:02.566    19 922 kbps     00:24:02.691    82 008 bytes    344 348 bytes   00:24:06.278
7               0:26:02.060     0:04:05.912     16 870 kbps     29 583 kbps     00:28:40.635    24 291 kbps     00:29:36.357    22 780 kbps     00:29:36.357    87 951 bytes    383 250 bytes   00:29:38.902
8               0:30:07.972     0:02:14.801     9 849 kbps      18 728 kbps     00:32:17.268    16 126 kbps     00:32:13.973    14 689 kbps     00:32:12.764    51 349 bytes    238 023 bytes   00:30:43.800
9               0:32:22.774     0:04:50.623     13 244 kbps     24 561 kbps     00:36:46.954    22 665 kbps     00:32:33.451    22 214 kbps     00:32:28.446    69 046 bytes    357 308 bytes   00:36:47.788
10              0:37:13.397     0:05:33.333     13 703 kbps     27 900 kbps     00:39:21.400    24 763 kbps     00:38:54.665    19 881 kbps     00:38:34.437    71 442 bytes    591 152 bytes   00:42:05.773
11              0:42:46.730     0:04:41.447     14 809 kbps     31 411 kbps     00:43:53.297    23 647 kbps     00:43:52.004    22 466 kbps     00:43:53.172    77 209 bytes    314 213 bytes   00:47:16.875
12              0:47:28.178     0:03:55.568     12 018 kbps     26 663 kbps     00:50:11.341    20 634 kbps     00:51:18.617    18 361 kbps     00:51:13.737    62 654 bytes    307 968 bytes   00:50:12.175
13              0:51:23.747     0:03:27.206     16 907 kbps     30 800 kbps     00:54:38.984    23 977 kbps     00:54:00.487    23 013 kbps     00:54:25.804    88 144 bytes    367 819 bytes   00:52:30.147
14              0:54:50.954     0:04:53.126     15 641 kbps     29 769 kbps     00:58:26.544    20 382 kbps     00:58:07.609    18 368 kbps     00:58:02.604    81 542 bytes    357 664 bytes   00:55:56.519
15              0:59:44.080     0:03:25.705     14 691 kbps     30 597 kbps     01:02:50.808    23 320 kbps     01:02:46.554    21 883 kbps     01:02:43.217    76 593 bytes    460 817 bytes   01:02:46.596
16              1:03:09.786     0:04:36.442     13 927 kbps     28 971 kbps     01:03:30.473    19 135 kbps     01:03:27.178    17 076 kbps     01:05:03.524    72 608 bytes    387 414 bytes   01:03:30.723
17              1:07:46.228     0:05:17.984     17 693 kbps     31 594 kbps     01:12:35.392    24 059 kbps     01:12:03.402    22 421 kbps     01:10:00.404    92 242 bytes    393 956 bytes   01:07:54.153
18              1:13:04.213     0:01:53.947     15 220 kbps     27 722 kbps     01:14:01.103    19 261 kbps     01:14:37.890    17 579 kbps     01:14:34.595    79 351 bytes    379 883 bytes   01:13:12.304
19              1:14:58.160     0:04:30.436     14 414 kbps     26 693 kbps     01:18:06.431    22 452 kbps     01:18:02.552    21 118 kbps     01:17:57.839    75 148 bytes    393 305 bytes   01:18:07.391
20              1:19:28.597     0:03:16.696     13 188 kbps     22 460 kbps     01:22:08.089    18 615 kbps     01:22:03.501    16 680 kbps     01:19:40.734    68 759 bytes    285 821 bytes   01:22:45.168
21              1:22:45.293     0:04:38.444     14 548 kbps     26 812 kbps     01:24:04.914    23 572 kbps     01:24:04.873    20 377 kbps     01:24:04.873    75 845 bytes    362 495 bytes   01:26:00.238
22              1:27:23.738     0:02:55.508     17 138 kbps     31 161 kbps     01:28:24.132    24 787 kbps     01:28:24.132    22 476 kbps     01:28:24.132    89 350 bytes    299 251 bytes   01:28:49.490
23              1:30:19.247     0:06:14.040     15 405 kbps     30 574 kbps     01:33:22.346    20 860 kbps     01:30:24.377    18 161 kbps     01:33:21.846    80 314 bytes    378 939 bytes   01:30:46.190
24              1:36:33.287     0:02:58.344     15 425 kbps     26 014 kbps     01:37:42.439    20 788 kbps     01:37:42.565    19 571 kbps     01:37:08.781    80 417 bytes    308 812 bytes   01:37:09.406
25              1:39:31.632     0:04:16.756     16 655 kbps     32 072 kbps     01:41:07.061    24 231 kbps     01:39:50.109    22 510 kbps     01:42:42.781    86 834 bytes    483 526 bytes   01:39:53.028
26              1:43:48.388     0:03:57.570     17 848 kbps     29 995 kbps     01:44:14.915    24 849 kbps     01:44:41.984    23 275 kbps     01:45:54.014    93 052 bytes    439 110 bytes   01:45:55.015
27              1:47:45.959     0:04:07.080     14 643 kbps     26 348 kbps     01:48:12.110    20 883 kbps     01:48:09.191    17 897 kbps     01:48:08.607    76 342 bytes    408 201 bytes   01:47:48.920
28              1:51:53.039     0:05:01.301     15 429 kbps     27 462 kbps     01:54:16.933    21 738 kbps     01:54:13.930    20 048 kbps     01:55:24.834    80 441 bytes    312 225 bytes   01:54:17.392
29              1:56:54.340     0:03:59.072     17 162 kbps     30 416 kbps     01:57:17.905    25 188 kbps     01:57:17.864    22 772 kbps     01:57:14.027    89 475 bytes    336 166 bytes   01:57:15.862
30              2:00:53.412     0:02:13.132     17 035 kbps     31 039 kbps     02:03:04.668    24 140 kbps     02:03:00.706    22 590 kbps     02:02:56.452    88 812 bytes    270 121 bytes   02:01:02.672
31              2:03:06.545     0:02:57.010     14 988 kbps     21 847 kbps     02:04:09.859    19 266 kbps     02:04:25.249    18 189 kbps     02:04:24.331    78 143 bytes    246 831 bytes   02:05:01.494
32              2:06:03.556     0:04:49.288     16 151 kbps     31 806 kbps     02:10:39.039    23 701 kbps     02:10:38.288    21 294 kbps     02:10:34.868    84 202 bytes    425 381 bytes   02:08:49.888
33              2:10:52.845     0:04:26.266     16 607 kbps     29 211 kbps     02:13:36.800    24 640 kbps     02:12:18.555    22 267 kbps     02:12:13.258    86 579 bytes    328 675 bytes   02:15:18.443
34              2:15:19.111     0:03:36.883     16 143 kbps     24 639 kbps     02:16:57.000    21 122 kbps     02:17:39.709    19 080 kbps     02:16:50.744    84 163 bytes    380 741 bytes   02:17:58.895
35              2:18:55.994     0:04:23.096     17 039 kbps     30 607 kbps     02:22:30.750    22 740 kbps     02:21:32.901    21 893 kbps     02:21:28.229    88 835 bytes    465 071 bytes   02:21:40.575
36              2:23:19.090     0:01:26.586     14 673 kbps     22 581 kbps     02:24:02.091    17 093 kbps     02:24:05.511    16 162 kbps     02:23:53.374    76 537 bytes    360 725 bytes   02:23:49.954
37              2:24:45.677     0:06:33.351     1 126 kbps      12 049 kbps     02:31:12.313    6 418 kbps      02:31:12.021    3 711 kbps      02:31:07.057    5 951 bytes     330 550 bytes   02:31:16.233
STREAM DIAGNOSTICS:
File            PID             Type            Codec           Language                Seconds                 Bitrate                 Bytes           Packets
----            ---             ----            -----           --------                --------------          --------------          -------------   -----
00021.M2TS      4113 (0x1011)   0xEA            VC-1                                    9078,903                14 869                  16 874 186 852  91 837 545
00021.M2TS      4352 (0x1100)   0x83            TrueHD          eng (English)           9078,903                2 104                   2 387 867 566   17 829 071
00021.M2TS      4353 (0x1101)   0x86            DTS-HD MA       rus (Russian)           9078,903                1 784                   2 024 506 824   11 891 016
00021.M2TS      4354 (0x1102)   0x82            DTS             rus (Russian)           9078,903                768                     871 582 720     5 106 930
00021.M2TS      4355 (0x1103)   0x81            AC3             ukr (Ukrainian)         9078,903                384                     435 790 848     2 553 462
00021.M2TS      4356 (0x1104)   0x81            AC3             rus (Russian)           9078,903                384                     435 764 736     2 553 309
00021.M2TS      4357 (0x1105)   0x82            DTS             rus (Russian)           9078,903                768                     871 532 544     5 106 636
00021.M2TS      4608 (0x1200)   0x90            PGS             eng (English)           9078,903                38                      42 965 540      246 752
00021.M2TS      4609 (0x1201)   0x90            PGS             rus (Russian)           9078,903                35                      39 628 023      229 605
00021.M2TS      4610 (0x1202)   0x90            PGS             por (Portuguese)        9078,903                28                      32 180 892      187 082
00021.M2TS      4611 (0x1203)   0x90            PGS             ukr (Ukrainian)         9078,903                35                      39 460 884      229 403
00021.M2TS      4612 (0x1204)   0x90            PGS             bul (Bulgarian)         9078,903                26                      29 605 318      171 315
00021.M2TS      4613 (0x1205)   0x90            PGS             hrv (Croatian)          9078,903                27                      30 752 825      179 612
00021.M2TS      4614 (0x1206)   0x90            PGS             ces (Czech)             9078,903                28                      31 733 004      182 419
00021.M2TS      4615 (0x1207)   0x90            PGS             ell (Greek)             9078,903                29                      32 820 162      190 485
00021.M2TS      4616 (0x1208)   0x90            PGS             heb (Hebrew)            9078,903                26                      29 502 276      172 873
00021.M2TS      4617 (0x1209)   0x90            PGS             hun (Hungarian)         9078,903                30                      33 735 548      195 825
00021.M2TS      4618 (0x120A)   0x90            PGS             isl (Icelandic)         9078,903                30                      33 900 146      196 449
00021.M2TS      4619 (0x120B)   0x90            PGS             pol (Polish)            9078,903                28                      31 594 575      182 753
00021.M2TS      4620 (0x120C)   0x90            PGS             ron (Romanian)          9078,903                36                      40 834 685      234 861
00021.M2TS      4621 (0x120D)   0x90            PGS             srp (Serbian)           9078,903                27                      30 396 261      175 613
00021.M2TS      4622 (0x120E)   0x90            PGS             slv (Slovenian)         9078,903                27                      30 550 564      178 533
00021.M2TS      4623 (0x120F)   0x90            PGS             tur (Turkish)           9078,903                35                      40 160 598      230 765
QUICK SUMMARY:
Disc Title: The_DEPARTED_BD_BLUEBIRD
Disc Size: 36 232 261 880 bytes
Protection: AACS
BD-Java: No
Playlist: 00001.MPLS
Size: 26 968 909 824 bytes
Length: 2:31:19
Total Bitrate: 23,76 Mbps
Video: VC-1 Video / 14869 kbps / 1080p / 23,976 fps / 16:9 / Advanced Profile 3
Audio: Russian / DTS-HD Master Audio / 5.1 / 48 kHz / 1784 kbps / 16-bit (DTS Core: 5.1 / 48 kHz / 768 kbps / 16-bit)
Audio: English / Dolby TrueHD Audio / 5.1 / 48 kHz / 1464 kbps / 16-bit (AC3 Embedded: 5.1 / 48 kHz / 640 kbps / DN -4dB)
Audio: Russian / DTS Audio / 5.1 / 48 kHz / 768 kbps / 24-bit
Audio: Russian / DTS Audio / 5.1 / 48 kHz / 768 kbps / 24-bit
Audio: Russian / Dolby Digital Audio / 5.1 / 48 kHz / 384 kbps
Audio: Ukrainian / Dolby Digital Audio / 2.1 / 48 kHz / 384 kbps
Subtitle: English / 37,859 kbps
Subtitle: Bulgarian / 26,087 kbps
Subtitle: Croatian / 27,098 kbps
Subtitle: Czech / 27,962 kbps
Subtitle: Greek / 28,920 kbps
Subtitle: Hebrew / 25,996 kbps
Subtitle: Hungarian / 29,726 kbps
Subtitle: Icelandic / 29,871 kbps
Subtitle: Polish / 27,840 kbps
Subtitle: Portuguese / 28,356 kbps
Subtitle: Romanian / 35,982 kbps
Subtitle: Russian / 34,918 kbps
Subtitle: Serbian / 26,784 kbps
Subtitle: Slovenian / 26,920 kbps
Subtitle: Turkish / 35,388 kbps
Subtitle: Ukrainian / 34,771 kbps
********************
PLAYLIST: 00005.MPLS
********************
Total   Video
Title                                                           Codec   Length  Movie Size      Disc Size       Bitrate Bitrate Main Audio Track                          Secondary Audio Track
-----                                                           ------  ------- --------------  --------------  ------- ------- ------------------                        ---------------------
00005.MPLS                                                      MPEG-2  1:45:12 5 964 840 960   36 232 261 880  7,56    5,76    DD AC3 2.0 192Kbps
DISC INFO:
Disc Title:     The_DEPARTED_BD_BLUEBIRD
Disc Size:      36 232 261 880 bytes
Protection:     AACS
BD-Java:        No
BDInfo:         0.5.5
PLAYLIST REPORT:
Name:                   00005.MPLS
Length:                 1:45:12 (h:m:s)
Size:                   5 964 840 960 bytes
Total Bitrate:          7,56 Mbps
VIDEO:
Codec                   Bitrate             Description
-----                   -------             -----------
MPEG-2 Video            5757 kbps           480i / 29,970 fps / 4:3
AUDIO:
Codec                           Language        Bitrate         Description
-----                           --------        -------         -----------
Dolby Digital Audio             English         192 kbps        2.0 / 48 kHz / 192 kbps / DN -4dB
Dolby Digital Audio             Russian         192 kbps        2.0 / 48 kHz / 192 kbps / DN -1dB / Dolby Surround
Dolby Digital Audio             Russian         192 kbps        2.0 / 48 kHz / 192 kbps / DN -1dB / Dolby Surround
Dolby Digital Audio             Russian         192 kbps        2.0 / 48 kHz / 192 kbps / DN -1dB / Dolby Surround
Dolby Digital Audio             Russian         192 kbps        2.0 / 48 kHz / 192 kbps / DN -1dB / Dolby Surround
Dolby Digital Audio             Russian         192 kbps        2.0 / 48 kHz / 192 kbps / DN -1dB / Dolby Surround
SUBTITLES:
Codec                           Language        Bitrate         Description
-----                           --------        -------         -----------
Presentation Graphics           English         3,260 kbps
Presentation Graphics           Bulgarian       0,011 kbps
Presentation Graphics           Croatian        0,011 kbps
Presentation Graphics           Czech           2,605 kbps
Presentation Graphics           Greek           0,011 kbps
Presentation Graphics           Hebrew          0,011 kbps
Presentation Graphics           Hungarian       2,943 kbps
Presentation Graphics           Icelandic       0,011 kbps
Presentation Graphics           Polish          2,939 kbps
Presentation Graphics           Portuguese      3,005 kbps
Presentation Graphics           Romanian        0,011 kbps
Presentation Graphics           Russian         0,017 kbps
Presentation Graphics           Serbian         0,011 kbps
Presentation Graphics           Slovenian       0,011 kbps
Presentation Graphics           Turkish         0,011 kbps
Presentation Graphics           Ukrainian       0,017 kbps
FILES:
Name            Time In         Length          Size            Total Bitrate
----            -------         ------          ----            -------------
00020.M2TS      0:00:00.000     0:19:24.763     1 297 440 768   8 911
00009.M2TS      0:19:24.763     1:25:47.442     4 667 400 192   7 254
CHAPTERS:
Number          Time In         Length          Avg Video Rate  Max 1-Sec Rate  Max 1-Sec Time  Max 5-Sec Rate  Max 5-Sec Time  Max 10Sec Rate  Max 10Sec Time  Avg Frame Size  Max Frame Size  Max Frame Time
------          -------         ------          --------------  --------------  --------------  --------------  --------------  --------------  --------------  --------------  --------------  --------------
1               0:00:00.000     0:19:24.763     6 976 kbps      10 568 kbps     00:07:26.813    10 051 kbps     00:07:26.479    9 696 kbps      00:07:23.042    29 095 bytes    85 512 bytes    00:18:32.511
2               0:19:24.763     1:25:47.442     5 481 kbps      8 607 kbps      00:23:28.473    7 705 kbps      00:20:50.816    7 382 kbps      00:22:56.475    22 860 bytes    161 048 bytes   00:21:27.386
STREAM DIAGNOSTICS:
File            PID             Type            Codec           Language                Seconds                 Bitrate                 Bytes           Packets
----            ---             ----            -----           --------                --------------          --------------          -------------   -----
00020.M2TS      4113 (0x1011)   0x02            MPEG-2                                  1164,664                6 977                   1 015 684 628   5 540 410
00020.M2TS      4352 (0x1100)   0x81            AC3             eng (English)           1164,664                192                     27 954 432      181 995
00020.M2TS      4353 (0x1101)   0x81            AC3             rus (Russian)           1164,664                192                     27 955 200      182 000
00020.M2TS      4354 (0x1102)   0x81            AC3             rus (Russian)           1164,664                192                     27 955 200      182 000
00020.M2TS      4355 (0x1103)   0x81            AC3             rus (Russian)           1164,664                192                     27 955 200      182 000
00020.M2TS      4356 (0x1104)   0x81            AC3             rus (Russian)           1164,664                192                     27 955 200      182 000
00020.M2TS      4357 (0x1105)   0x81            AC3             rus (Russian)           1164,664                192                     27 955 200      182 000
00020.M2TS      4608 (0x1200)   0x90            PGS             eng (English)           1164,664                18                      2 565 463       15 994
00020.M2TS      4609 (0x1201)   0x90            PGS             rus (Russian)           1164,664                0                       6 762           44
00020.M2TS      4610 (0x1202)   0x90            PGS             por (Portuguese)        1164,664                16                      2 364 227       14 878
00020.M2TS      4611 (0x1203)   0x90            PGS             ukr (Ukrainian)         1164,664                0                       6 762           44
00020.M2TS      4612 (0x1204)   0x90            PGS             bul (Bulgarian)         1164,664                0                       1 754           17
00020.M2TS      4613 (0x1205)   0x90            PGS             hrv (Croatian)          1164,664                0                       1 754           17
00020.M2TS      4614 (0x1206)   0x90            PGS             ces (Czech)             1164,664                14                      2 049 027       13 240
00020.M2TS      4615 (0x1207)   0x90            PGS             ell (Greek)             1164,664                0                       1 754           17
00020.M2TS      4616 (0x1208)   0x90            PGS             heb (Hebrew)            1164,664                0                       1 754           17
00020.M2TS      4617 (0x1209)   0x90            PGS             hun (Hungarian)         1164,664                16                      2 315 030       14 675
00020.M2TS      4618 (0x120A)   0x90            PGS             isl (Icelandic)         1164,664                0                       1 754           17
00020.M2TS      4619 (0x120B)   0x90            PGS             pol (Polish)            1164,664                16                      2 312 210       14 630
00020.M2TS      4620 (0x120C)   0x90            PGS             ron (Romanian)          1164,664                0                       1 754           17
00020.M2TS      4621 (0x120D)   0x90            PGS             srp (Serbian)           1164,664                0                       1 754           17
00020.M2TS      4622 (0x120E)   0x90            PGS             slv (Slovenian)         1164,664                0                       1 754           17
00020.M2TS      4623 (0x120F)   0x90            PGS             tur (Turkish)           1164,664                0                       1 754           17
00009.M2TS      4113 (0x1011)   0x02            MPEG-2                                  5147,376                5 481                   3 526 526 548   19 255 759
00009.M2TS      4352 (0x1100)   0x81            AC3             eng (English)           5147,376                192                     123 538 176     804 285
00009.M2TS      4353 (0x1101)   0x81            AC3             rus (Russian)           5147,376                192                     123 538 176     804 285
00009.M2TS      4354 (0x1102)   0x81            AC3             rus (Russian)           5147,376                192                     123 538 176     804 285
00009.M2TS      4355 (0x1103)   0x81            AC3             rus (Russian)           5147,376                192                     123 538 176     804 285
00009.M2TS      4356 (0x1104)   0x81            AC3             rus (Russian)           5147,376                192                     123 538 176     804 285
00009.M2TS      4357 (0x1105)   0x81            AC3             rus (Russian)           5147,376                192                     123 538 176     804 285
00009.M2TS      4608 (0x1200)   0x90            PGS             eng (English)           5147,376                0                       6 762           44
00009.M2TS      4609 (0x1201)   0x90            PGS             rus (Russian)           5147,376                0                       6 762           44
00009.M2TS      4610 (0x1202)   0x90            PGS             por (Portuguese)        5147,376                0                       6 762           44
00009.M2TS      4611 (0x1203)   0x90            PGS             ukr (Ukrainian)         5147,376                0                       6 762           44
00009.M2TS      4612 (0x1204)   0x90            PGS             bul (Bulgarian)         5147,376                0                       6 762           44
00009.M2TS      4613 (0x1205)   0x90            PGS             hrv (Croatian)          5147,376                0                       6 762           44
00009.M2TS      4614 (0x1206)   0x90            PGS             ces (Czech)             5147,376                0                       6 762           44
00009.M2TS      4615 (0x1207)   0x90            PGS             ell (Greek)             5147,376                0                       6 762           44
00009.M2TS      4616 (0x1208)   0x90            PGS             heb (Hebrew)            5147,376                0                       6 762           44
00009.M2TS      4617 (0x1209)   0x90            PGS             hun (Hungarian)         5147,376                0                       6 762           44
00009.M2TS      4618 (0x120A)   0x90            PGS             isl (Icelandic)         5147,376                0                       6 762           44
00009.M2TS      4619 (0x120B)   0x90            PGS             pol (Polish)            5147,376                0                       6 762           44
00009.M2TS      4620 (0x120C)   0x90            PGS             ron (Romanian)          5147,376                0                       6 762           44
00009.M2TS      4621 (0x120D)   0x90            PGS             srp (Serbian)           5147,376                0                       6 762           44
00009.M2TS      4622 (0x120E)   0x90            PGS             slv (Slovenian)         5147,376                0                       6 762           44
00009.M2TS      4623 (0x120F)   0x90            PGS             tur (Turkish)           5147,376                0                       6 762           44
QUICK SUMMARY:
Disc Title: The_DEPARTED_BD_BLUEBIRD
Disc Size: 36 232 261 880 bytes
Protection: AACS
BD-Java: No
Playlist: 00005.MPLS
Size: 5 964 840 960 bytes
Length: 1:45:12
Total Bitrate: 7,56 Mbps
Video: MPEG-2 Video / 5757 kbps / 480i / 29,970 fps / 4:3
Audio: English / Dolby Digital Audio / 2.0 / 48 kHz / 192 kbps / DN -4dB
Audio: Russian / Dolby Digital Audio / 2.0 / 48 kHz / 192 kbps / DN -1dB / Dolby Surround
Audio: Russian / Dolby Digital Audio / 2.0 / 48 kHz / 192 kbps / DN -1dB / Dolby Surround
Audio: Russian / Dolby Digital Audio / 2.0 / 48 kHz / 192 kbps / DN -1dB / Dolby Surround
Audio: Russian / Dolby Digital Audio / 2.0 / 48 kHz / 192 kbps / DN -1dB / Dolby Surround
Audio: Russian / Dolby Digital Audio / 2.0 / 48 kHz / 192 kbps / DN -1dB / Dolby Surround
Subtitle: English / 3,260 kbps
Subtitle: Bulgarian / 0,011 kbps
Subtitle: Croatian / 0,011 kbps
Subtitle: Czech / 2,605 kbps
Subtitle: Greek / 0,011 kbps
Subtitle: Hebrew / 0,011 kbps
Subtitle: Hungarian / 2,943 kbps
Subtitle: Icelandic / 0,011 kbps
Subtitle: Polish / 2,939 kbps
Subtitle: Portuguese / 3,005 kbps
Subtitle: Romanian / 0,011 kbps
Subtitle: Russian / 0,017 kbps
Subtitle: Serbian / 0,011 kbps
Subtitle: Slovenian / 0,011 kbps
Subtitle: Turkish / 0,011 kbps
Subtitle: Ukrainian / 0,017 kbps
********************
PLAYLIST: 00004.MPLS
********************
Total   Video
Title                                                           Codec   Length  Movie Size      Disc Size       Bitrate Bitrate Main Audio Track                          Secondary Audio Track
-----                                                           ------  ------- --------------  --------------  ------- ------- ------------------                        ---------------------
00004.MPLS                                                      MPEG-2  0:24:03 1 613 746 176   36 232 261 880  8,94    6,98    DD AC3 2.0 192Kbps
DISC INFO:
Disc Title:     The_DEPARTED_BD_BLUEBIRD
Disc Size:      36 232 261 880 bytes
Protection:     AACS
BD-Java:        No
BDInfo:         0.5.5
PLAYLIST REPORT:
Name:                   00004.MPLS
Length:                 0:24:03 (h:m:s)
Size:                   1 613 746 176 bytes
Total Bitrate:          8,94 Mbps
VIDEO:
Codec                   Bitrate             Description
-----                   -------             -----------
MPEG-2 Video            6985 kbps           480i / 29,970 fps / 4:3
AUDIO:
Codec                           Language        Bitrate         Description
-----                           --------        -------         -----------
Dolby Digital Audio             English         192 kbps        2.0 / 48 kHz / 192 kbps / DN -4dB
Dolby Digital Audio             Russian         192 kbps        2.0 / 48 kHz / 192 kbps
Dolby Digital Audio             Russian         192 kbps        2.0 / 48 kHz / 192 kbps
Dolby Digital Audio             Russian         192 kbps        2.0 / 48 kHz / 192 kbps
Dolby Digital Audio             Russian         192 kbps        2.0 / 48 kHz / 192 kbps
Dolby Digital Audio             Russian         192 kbps        2.0 / 48 kHz / 192 kbps
SUBTITLES:
Codec                           Language        Bitrate         Description
-----                           --------        -------         -----------
Presentation Graphics           English         21,543 kbps
Presentation Graphics           Bulgarian       0,010 kbps
Presentation Graphics           Croatian        0,010 kbps
Presentation Graphics           Czech           17,837 kbps
Presentation Graphics           Greek           0,010 kbps
Presentation Graphics           Hebrew          0,010 kbps
Presentation Graphics           Hungarian       20,060 kbps
Presentation Graphics           Icelandic       0,010 kbps
Presentation Graphics           Polish          19,656 kbps
Presentation Graphics           Portuguese      20,274 kbps
Presentation Graphics           Romanian        0,010 kbps
Presentation Graphics           Russian         0,037 kbps
Presentation Graphics           Serbian         0,010 kbps
Presentation Graphics           Slovenian       0,010 kbps
Presentation Graphics           Turkish         0,010 kbps
Presentation Graphics           Ukrainian       0,037 kbps
FILES:
Name            Time In         Length          Size            Total Bitrate
----            -------         ------          ----            -------------
00007.M2TS      0:00:00.000     0:24:03.575     1 613 746 176   8 943
CHAPTERS:
Number          Time In         Length          Avg Video Rate  Max 1-Sec Rate  Max 1-Sec Time  Max 5-Sec Rate  Max 5-Sec Time  Max 10Sec Rate  Max 10Sec Time  Avg Frame Size  Max Frame Size  Max Frame Time
------          -------         ------          --------------  --------------  --------------  --------------  --------------  --------------  --------------  --------------  --------------  --------------
1               0:00:00.000     0:24:03.575     6 985 kbps      11 098 kbps     00:02:36.422    10 134 kbps     00:01:22.749    9 567 kbps      00:01:23.249    29 132 bytes    102 356 bytes   00:01:25.485
STREAM DIAGNOSTICS:
File            PID             Type            Codec           Language                Seconds                 Bitrate                 Bytes           Packets
----            ---             ----            -----           --------                --------------          --------------          -------------   -----
00007.M2TS      4113 (0x1011)   0x02            MPEG-2                                  1443,542                6 985                   1 260 360 936   6 874 972
00007.M2TS      4352 (0x1100)   0x81            AC3             eng (English)           1443,542                192                     34 646 016      225 560
00007.M2TS      4353 (0x1101)   0x81            AC3             rus (Russian)           1443,542                192                     34 646 784      225 565
00007.M2TS      4354 (0x1102)   0x81            AC3             rus (Russian)           1443,542                192                     34 646 784      225 565
00007.M2TS      4355 (0x1103)   0x81            AC3             rus (Russian)           1443,542                192                     34 646 784      225 565
00007.M2TS      4356 (0x1104)   0x81            AC3             rus (Russian)           1443,542                192                     34 646 784      225 565
00007.M2TS      4357 (0x1105)   0x81            AC3             rus (Russian)           1443,542                192                     34 646 784      225 565
00007.M2TS      4608 (0x1200)   0x90            PGS             eng (English)           1443,542                22                      3 887 301       24 045
00007.M2TS      4609 (0x1201)   0x90            PGS             rus (Russian)           1443,542                0                       6 762           44
00007.M2TS      4610 (0x1202)   0x90            PGS             por (Portuguese)        1443,542                20                      3 658 414       22 876
00007.M2TS      4611 (0x1203)   0x90            PGS             ukr (Ukrainian)         1443,542                0                       6 762           44
00007.M2TS      4612 (0x1204)   0x90            PGS             bul (Bulgarian)         1443,542                0                       1 754           17
00007.M2TS      4613 (0x1205)   0x90            PGS             hrv (Croatian)          1443,542                0                       1 754           17
00007.M2TS      4614 (0x1206)   0x90            PGS             ces (Czech)             1443,542                18                      3 218 672       20 591
00007.M2TS      4615 (0x1207)   0x90            PGS             ell (Greek)             1443,542                0                       1 754           17
00007.M2TS      4616 (0x1208)   0x90            PGS             heb (Hebrew)            1443,542                0                       1 754           17
00007.M2TS      4617 (0x1209)   0x90            PGS             hun (Hungarian)         1443,542                20                      3 619 816       22 745
00007.M2TS      4618 (0x120A)   0x90            PGS             isl (Icelandic)         1443,542                0                       1 754           17
00007.M2TS      4619 (0x120B)   0x90            PGS             pol (Polish)            1443,542                20                      3 546 812       22 316
00007.M2TS      4620 (0x120C)   0x90            PGS             ron (Romanian)          1443,542                0                       1 754           17
00007.M2TS      4621 (0x120D)   0x90            PGS             srp (Serbian)           1443,542                0                       1 754           17
00007.M2TS      4622 (0x120E)   0x90            PGS             slv (Slovenian)         1443,542                0                       1 754           17
00007.M2TS      4623 (0x120F)   0x90            PGS             tur (Turkish)           1443,542                0                       1 754           17
QUICK SUMMARY:
Disc Title: The_DEPARTED_BD_BLUEBIRD
Disc Size: 36 232 261 880 bytes
Protection: AACS
BD-Java: No
Playlist: 00004.MPLS
Size: 1 613 746 176 bytes
Length: 0:24:03
Total Bitrate: 8,94 Mbps
Video: MPEG-2 Video / 6985 kbps / 480i / 29,970 fps / 4:3
Audio: English / Dolby Digital Audio / 2.0 / 48 kHz / 192 kbps / DN -4dB
Audio: Russian / Dolby Digital Audio / 2.0 / 48 kHz / 192 kbps
Audio: Russian / Dolby Digital Audio / 2.0 / 48 kHz / 192 kbps
Audio: Russian / Dolby Digital Audio / 2.0 / 48 kHz / 192 kbps
Audio: Russian / Dolby Digital Audio / 2.0 / 48 kHz / 192 kbps
Audio: Russian / Dolby Digital Audio / 2.0 / 48 kHz / 192 kbps
Subtitle: English / 21,543 kbps
Subtitle: Bulgarian / 0,010 kbps
Subtitle: Croatian / 0,010 kbps
Subtitle: Czech / 17,837 kbps
Subtitle: Greek / 0,010 kbps
Subtitle: Hebrew / 0,010 kbps
Subtitle: Hungarian / 20,060 kbps
Subtitle: Icelandic / 0,010 kbps
Subtitle: Polish / 19,656 kbps
Subtitle: Portuguese / 20,274 kbps
Subtitle: Romanian / 0,010 kbps
Subtitle: Russian / 0,037 kbps
Subtitle: Serbian / 0,010 kbps
Subtitle: Slovenian / 0,010 kbps
Subtitle: Turkish / 0,010 kbps
Subtitle: Ukrainian / 0,037 kbps
********************
PLAYLIST: 00002.MPLS
********************
Total   Video
Title                                                           Codec   Length  Movie Size      Disc Size       Bitrate Bitrate Main Audio Track                          Secondary Audio Track
-----                                                           ------  ------- --------------  --------------  ------- ------- ------------------                        ---------------------
00002.MPLS                                                      MPEG-2  0:21:07 1 005 907 968   36 232 261 880  6,35    4,49    DD AC3 2.0 192Kbps
DISC INFO:
Disc Title:     The_DEPARTED_BD_BLUEBIRD
Disc Size:      36 232 261 880 bytes
Protection:     AACS
BD-Java:        No
BDInfo:         0.5.5
PLAYLIST REPORT:
Name:                   00002.MPLS
Length:                 0:21:07 (h:m:s)
Size:                   1 005 907 968 bytes
Total Bitrate:          6,35 Mbps
VIDEO:
Codec                   Bitrate             Description
-----                   -------             -----------
MPEG-2 Video            4489 kbps           480i / 29,970 fps / 4:3
AUDIO:
Codec                           Language        Bitrate         Description
-----                           --------        -------         -----------
Dolby Digital Audio             English         192 kbps        2.0 / 48 kHz / 192 kbps / DN -4dB
Dolby Digital Audio             Russian         192 kbps        2.0 / 48 kHz / 192 kbps
Dolby Digital Audio             Russian         192 kbps        2.0 / 48 kHz / 192 kbps
Dolby Digital Audio             Russian         192 kbps        2.0 / 48 kHz / 192 kbps
Dolby Digital Audio             Russian         192 kbps        2.0 / 48 kHz / 192 kbps
Dolby Digital Audio             Russian         192 kbps        2.0 / 48 kHz / 192 kbps
SUBTITLES:
Codec                           Language        Bitrate         Description
-----                           --------        -------         -----------
Presentation Graphics           English         21,487 kbps
Presentation Graphics           Bulgarian       0,011 kbps
Presentation Graphics           Croatian        0,011 kbps
Presentation Graphics           Czech           20,908 kbps
Presentation Graphics           Greek           0,011 kbps
Presentation Graphics           Hebrew          0,011 kbps
Presentation Graphics           Hungarian       22,035 kbps
Presentation Graphics           Icelandic       0,011 kbps
Presentation Graphics           Polish          21,699 kbps
Presentation Graphics           Portuguese      21,990 kbps
Presentation Graphics           Romanian        0,011 kbps
Presentation Graphics           Russian         0,043 kbps
Presentation Graphics           Serbian         0,011 kbps
Presentation Graphics           Slovenian       0,011 kbps
Presentation Graphics           Turkish         0,011 kbps
Presentation Graphics           Ukrainian       0,043 kbps
FILES:
Name            Time In         Length          Size            Total Bitrate
----            -------         ------          ----            -------------
00019.M2TS      0:00:00.000     0:21:07.833     1 005 907 968   6 347
CHAPTERS:
Number          Time In         Length          Avg Video Rate  Max 1-Sec Rate  Max 1-Sec Time  Max 5-Sec Rate  Max 5-Sec Time  Max 10Sec Rate  Max 10Sec Time  Avg Frame Size  Max Frame Size  Max Frame Time
------          -------         ------          --------------  --------------  --------------  --------------  --------------  --------------  --------------  --------------  --------------  --------------
1               0:00:00.000     0:21:07.833     4 489 kbps      8 513 kbps      00:03:45.792    7 713 kbps      00:16:09.835    7 369 kbps      00:13:25.871    18 721 bytes    128 480 bytes   00:01:29.989
STREAM DIAGNOSTICS:
File            PID             Type            Codec           Language                Seconds                 Bitrate                 Bytes           Packets
----            ---             ----            -----           --------                --------------          --------------          -------------   -----
00019.M2TS      4113 (0x1011)   0x02            MPEG-2                                  1267,767                4 489                   711 340 992     3 887 958
00019.M2TS      4352 (0x1100)   0x81            AC3             eng (English)           1267,767                192                     30 428 160      198 100
00019.M2TS      4353 (0x1101)   0x81            AC3             rus (Russian)           1267,767                192                     30 428 928      198 105
00019.M2TS      4354 (0x1102)   0x81            AC3             rus (Russian)           1267,767                192                     30 428 928      198 105
00019.M2TS      4355 (0x1103)   0x81            AC3             rus (Russian)           1267,767                192                     30 428 928      198 105
00019.M2TS      4356 (0x1104)   0x81            AC3             rus (Russian)           1267,767                192                     30 428 928      198 105
00019.M2TS      4357 (0x1105)   0x81            AC3             rus (Russian)           1267,767                192                     30 428 928      198 105
00019.M2TS      4608 (0x1200)   0x90            PGS             eng (English)           1267,767                21                      3 405 232       20 794
00019.M2TS      4609 (0x1201)   0x90            PGS             rus (Russian)           1267,767                0                       6 762           44
00019.M2TS      4610 (0x1202)   0x90            PGS             por (Portuguese)        1267,767                22                      3 484 928       21 590
00019.M2TS      4611 (0x1203)   0x90            PGS             ukr (Ukrainian)         1267,767                0                       6 762           44
00019.M2TS      4612 (0x1204)   0x90            PGS             bul (Bulgarian)         1267,767                0                       1 754           17
00019.M2TS      4613 (0x1205)   0x90            PGS             hrv (Croatian)          1267,767                0                       1 754           17
00019.M2TS      4614 (0x1206)   0x90            PGS             ces (Czech)             1267,767                21                      3 313 419       20 774
00019.M2TS      4615 (0x1207)   0x90            PGS             ell (Greek)             1267,767                0                       1 754           17
00019.M2TS      4616 (0x1208)   0x90            PGS             heb (Hebrew)            1267,767                0                       1 754           17
00019.M2TS      4617 (0x1209)   0x90            PGS             hun (Hungarian)         1267,767                22                      3 492 073       21 705
00019.M2TS      4618 (0x120A)   0x90            PGS             isl (Icelandic)         1267,767                0                       1 754           17
00019.M2TS      4619 (0x120B)   0x90            PGS             pol (Polish)            1267,767                22                      3 438 829       21 432
00019.M2TS      4620 (0x120C)   0x90            PGS             ron (Romanian)          1267,767                0                       1 754           17
00019.M2TS      4621 (0x120D)   0x90            PGS             srp (Serbian)           1267,767                0                       1 754           17
00019.M2TS      4622 (0x120E)   0x90            PGS             slv (Slovenian)         1267,767                0                       1 754           17
00019.M2TS      4623 (0x120F)   0x90            PGS             tur (Turkish)           1267,767                0                       1 754           17
QUICK SUMMARY:
Disc Title: The_DEPARTED_BD_BLUEBIRD
Disc Size: 36 232 261 880 bytes
Protection: AACS
BD-Java: No
Playlist: 00002.MPLS
Size: 1 005 907 968 bytes
Length: 0:21:07
Total Bitrate: 6,35 Mbps
Video: MPEG-2 Video / 4489 kbps / 480i / 29,970 fps / 4:3
Audio: English / Dolby Digital Audio / 2.0 / 48 kHz / 192 kbps / DN -4dB
Audio: Russian / Dolby Digital Audio / 2.0 / 48 kHz / 192 kbps
Audio: Russian / Dolby Digital Audio / 2.0 / 48 kHz / 192 kbps
Audio: Russian / Dolby Digital Audio / 2.0 / 48 kHz / 192 kbps
Audio: Russian / Dolby Digital Audio / 2.0 / 48 kHz / 192 kbps
Audio: Russian / Dolby Digital Audio / 2.0 / 48 kHz / 192 kbps
Subtitle: English / 21,487 kbps
Subtitle: Bulgarian / 0,011 kbps
Subtitle: Croatian / 0,011 kbps
Subtitle: Czech / 20,908 kbps
Subtitle: Greek / 0,011 kbps
Subtitle: Hebrew / 0,011 kbps
Subtitle: Hungarian / 22,035 kbps
Subtitle: Icelandic / 0,011 kbps
Subtitle: Polish / 21,699 kbps
Subtitle: Portuguese / 21,990 kbps
Subtitle: Romanian / 0,011 kbps
Subtitle: Russian / 0,043 kbps
Subtitle: Serbian / 0,011 kbps
Subtitle: Slovenian / 0,011 kbps
Subtitle: Turkish / 0,011 kbps
Subtitle: Ukrainian / 0,043 kbps
********************
PLAYLIST: 00015.MPLS
********************
Total   Video
Title                                                           Codec   Length  Movie Size      Disc Size       Bitrate Bitrate Main Audio Track                          Secondary Audio Track
-----                                                           ------  ------- --------------  --------------  ------- ------- ------------------                        ---------------------
00015.MPLS                                                      VC-1    0:05:40 181 751 808     36 232 261 880  4,27    4,02
DISC INFO:
Disc Title:     The_DEPARTED_BD_BLUEBIRD
Disc Size:      36 232 261 880 bytes
Protection:     AACS
BD-Java:        No
BDInfo:         0.5.5
PLAYLIST REPORT:
Name:                   00015.MPLS
Length:                 0:05:40 (h:m:s)
Size:                   181 751 808 bytes
Total Bitrate:          4,27 Mbps
VIDEO:
Codec                   Bitrate             Description
-----                   -------             -----------
VC-1 Video              4021 kbps           1080p / 23,976 fps / 16:9 / Advanced Profile 3
FILES:
Name            Time In         Length          Size            Total Bitrate
----            -------         ------          ----            -------------
00015.M2TS      0:00:00.000     0:05:40.340     181 751 808     4 272
CHAPTERS:
Number          Time In         Length          Avg Video Rate  Max 1-Sec Rate  Max 1-Sec Time  Max 5-Sec Rate  Max 5-Sec Time  Max 10Sec Rate  Max 10Sec Time  Avg Frame Size  Max Frame Size  Max Frame Time
------          -------         ------          --------------  --------------  --------------  --------------  --------------  --------------  --------------  --------------  --------------  --------------
1               0:00:00.000     0:00:10.009     3 874 kbps      5 389 kbps      00:00:08.967    4 000 kbps      00:00:05.004    3 680 kbps      00:00:00.000    20 115 bytes    243 419 bytes   00:00:06.339
2               0:00:10.009     0:00:10.009     3 814 kbps      5 624 kbps      00:00:19.018    4 146 kbps      00:00:15.014    3 814 kbps      00:00:10.010    19 886 bytes    252 353 bytes   00:00:12.178
3               0:00:20.019     0:00:10.009     4 303 kbps      6 627 kbps      00:00:29.028    4 707 kbps      00:00:24.941    4 303 kbps      00:00:20.020    22 434 bytes    285 280 bytes   00:00:22.689
4               0:00:30.029     0:00:10.009     4 763 kbps      6 975 kbps      00:00:38.997    4 865 kbps      00:00:30.029    4 763 kbps      00:00:30.029    24 831 bytes    318 964 bytes   00:00:34.951
5               0:00:40.039     0:00:10.009     4 208 kbps      4 767 kbps      00:00:40.040    4 271 kbps      00:00:40.039    4 208 kbps      00:00:40.039    21 939 bytes    279 000 bytes   00:00:44.878
6               0:00:50.049     0:00:10.009     4 914 kbps      5 497 kbps      00:00:50.050    4 961 kbps      00:00:50.049    4 914 kbps      00:00:50.049    25 621 bytes    326 554 bytes   00:00:56.556
7               0:01:00.059     0:00:10.010     3 926 kbps      4 593 kbps      00:01:06.983    4 151 kbps      00:01:04.063    3 926 kbps      00:01:00.060    20 466 bytes    270 589 bytes   00:01:00.643
8               0:01:10.070     0:00:10.009     3 913 kbps      5 810 kbps      00:01:19.037    4 262 kbps      00:01:15.033    3 913 kbps      00:01:10.070    20 401 bytes    259 347 bytes   00:01:11.154
9               0:01:20.080     0:00:10.009     3 528 kbps      5 553 kbps      00:01:29.089    3 872 kbps      00:01:25.085    3 528 kbps      00:01:20.080    18 396 bytes    228 140 bytes   00:01:26.920
10              0:01:30.090     0:00:10.009     4 117 kbps      5 916 kbps      00:01:39.099    4 215 kbps      00:01:30.090    4 117 kbps      00:01:30.090    21 466 bytes    274 850 bytes   00:01:31.591
11              0:01:40.100     0:00:10.009     3 010 kbps      3 690 kbps      00:01:49.109    3 052 kbps      00:01:45.105    3 010 kbps      00:01:40.100    15 694 bytes    240 829 bytes   00:01:50.110
12              0:01:50.110     0:00:10.009     3 964 kbps      4 442 kbps      00:01:52.529    4 016 kbps      00:01:50.151    3 964 kbps      00:01:50.110    20 668 bytes    261 094 bytes   00:01:54.948
13              0:02:00.120     0:00:10.009     4 102 kbps      4 584 kbps      00:02:01.287    4 140 kbps      00:02:00.120    4 102 kbps      00:02:00.120    21 384 bytes    271 067 bytes   00:02:01.955
14              0:02:10.130     0:00:10.009     3 420 kbps      5 164 kbps      00:02:19.138    3 731 kbps      00:02:15.135    3 420 kbps      00:02:10.130    17 830 bytes    223 030 bytes   00:02:14.801
15              0:02:20.139     0:00:10.009     2 131 kbps      3 824 kbps      00:02:20.598    2 315 kbps      00:02:20.473    2 131 kbps      00:02:20.140    11 112 bytes    226 136 bytes   00:02:25.436
16              0:02:30.149     0:00:10.009     4 956 kbps      7 653 kbps      00:02:30.149    5 139 kbps      00:02:35.154    4 956 kbps      00:02:30.150    25 840 bytes    316 776 bytes   00:02:31.150
17              0:02:40.159     0:00:10.009     4 445 kbps      6 441 kbps      00:02:49.168    4 815 kbps      00:02:45.081    4 445 kbps      00:02:40.160    23 176 bytes    297 978 bytes   00:02:43.997
18              0:02:50.169     0:00:10.009     3 968 kbps      5 858 kbps      00:02:59.137    4 044 kbps      00:02:50.169    3 968 kbps      00:02:50.169    20 686 bytes    262 866 bytes   00:02:54.507
19              0:03:00.179     0:00:10.010     4 500 kbps      5 166 kbps      00:03:00.180    4 647 kbps      00:03:00.179    4 500 kbps      00:03:00.180    23 463 bytes    305 494 bytes   00:03:06.186
20              0:03:10.190     0:00:10.009     3 692 kbps      4 615 kbps      00:03:19.199    3 751 kbps      00:03:15.195    3 692 kbps      00:03:10.190    19 249 bytes    312 532 bytes   00:03:20.200
21              0:03:20.200     0:00:10.009     4 600 kbps      6 217 kbps      00:03:29.209    4 944 kbps      00:03:25.205    4 600 kbps      00:03:20.200    23 981 bytes    312 561 bytes   00:03:21.951
22              0:03:30.210     0:00:10.009     3 893 kbps      5 447 kbps      00:03:39.219    4 201 kbps      00:03:35.215    3 893 kbps      00:03:30.210    20 297 bytes    261 221 bytes   00:03:33.630
23              0:03:40.220     0:00:10.009     4 005 kbps      5 716 kbps      00:03:49.229    4 336 kbps      00:03:45.225    4 005 kbps      00:03:40.220    20 880 bytes    268 170 bytes   00:03:40.637
24              0:03:50.230     0:00:10.009     4 306 kbps      5 941 kbps      00:03:59.239    4 439 kbps      00:03:50.230    4 306 kbps      00:03:50.230    22 447 bytes    290 509 bytes   00:03:50.563
25              0:04:00.240     0:00:10.009     3 537 kbps      3 976 kbps      00:04:00.240    3 587 kbps      00:04:00.240    3 537 kbps      00:04:00.240    18 442 bytes    232 264 bytes   00:04:01.658
26              0:04:10.250     0:00:10.009     4 400 kbps      4 914 kbps      00:04:10.249    4 431 kbps      00:04:10.250    4 400 kbps      00:04:10.250    22 942 bytes    290 337 bytes   00:04:15.088
27              0:04:20.260     0:00:10.009     4 979 kbps      5 528 kbps      00:04:20.260    4 989 kbps      00:04:20.260    4 979 kbps      00:04:20.260    25 960 bytes    329 196 bytes   00:04:26.182
28              0:04:30.270     0:00:10.009     4 748 kbps      6 992 kbps      00:04:39.279    5 165 kbps      00:04:35.275    4 748 kbps      00:04:30.270    24 754 bytes    319 122 bytes   00:04:31.437
29              0:04:40.279     0:00:10.009     3 952 kbps      5 347 kbps      00:04:49.289    4 245 kbps      00:04:45.284    3 952 kbps      00:04:40.279    20 602 bytes    266 727 bytes   00:04:47.203
30              0:04:50.289     0:00:10.009     2 819 kbps      4 655 kbps      00:04:59.299    3 116 kbps      00:04:55.294    2 819 kbps      00:04:50.289    14 695 bytes    196 999 bytes   00:05:00.299
31              0:05:00.299     0:00:10.009     3 344 kbps      5 428 kbps      00:05:09.308    3 349 kbps      00:05:05.304    3 344 kbps      00:05:00.299    17 433 bytes    220 527 bytes   00:05:10.309
32              0:05:10.309     0:00:10.010     3 648 kbps      5 609 kbps      00:05:19.277    3 686 kbps      00:05:10.435    3 648 kbps      00:05:10.310    19 016 bytes    238 977 bytes   00:05:11.144
33              0:05:20.320     0:00:10.009     4 172 kbps      5 584 kbps      00:05:29.329    4 276 kbps      00:05:25.325    4 172 kbps      00:05:20.320    21 753 bytes    403 255 bytes   00:05:30.330
34              0:05:30.330     0:00:10.009     4 772 kbps      5 096 kbps      00:05:30.330    5 094 kbps      00:05:30.330    0 kbps          00:00:00.000    24 983 bytes    403 255 bytes   00:05:31.331
STREAM DIAGNOSTICS:
File            PID             Type            Codec           Language                Seconds                 Bitrate                 Bytes           Packets
----            ---             ----            -----           --------                --------------          --------------          -------------   -----
00015.M2TS      4113 (0x1011)   0xEA            VC-1                                    340,257                 4 022                   171 076 638     935 191
QUICK SUMMARY:
Disc Title: The_DEPARTED_BD_BLUEBIRD
Disc Size: 36 232 261 880 bytes
Protection: AACS
BD-Java: No
Playlist: 00015.MPLS
Size: 181 751 808 bytes
Length: 0:05:40
Total Bitrate: 4,27 Mbps
Video: VC-1 Video / 4021 kbps / 1080p / 23,976 fps / 16:9 / Advanced Profile 3
********************
PLAYLIST: 00006.MPLS
********************
Total   Video
Title                                                           Codec   Length  Movie Size      Disc Size       Bitrate Bitrate Main Audio Track                          Secondary Audio Track
-----                                                           ------  ------- --------------  --------------  ------- ------- ------------------                        ---------------------
00006.MPLS                                                      MPEG-2  0:02:26 161 482 752     36 232 261 880  8,83    6,99    DD AC3 2.0 192Kbps
DISC INFO:
Disc Title:     The_DEPARTED_BD_BLUEBIRD
Disc Size:      36 232 261 880 bytes
Protection:     AACS
BD-Java:        No
BDInfo:         0.5.5
PLAYLIST REPORT:
Name:                   00006.MPLS
Length:                 0:02:26 (h:m:s)
Size:                   161 482 752 bytes
Total Bitrate:          8,83 Mbps
VIDEO:
Codec                   Bitrate             Description
-----                   -------             -----------
MPEG-2 Video            6993 kbps           480i / 29,970 fps / 16:9
AUDIO:
Codec                           Language        Bitrate         Description
-----                           --------        -------         -----------
Dolby Digital Audio             English         192 kbps        2.0 / 48 kHz / 192 kbps / DN -4dB
Dolby Digital Audio             English         192 kbps        2.0 / 48 kHz / 192 kbps / DN -4dB
Dolby Digital Audio             English         192 kbps        2.0 / 48 kHz / 192 kbps / DN -4dB
Dolby Digital Audio             English         192 kbps        2.0 / 48 kHz / 192 kbps / DN -4dB
Dolby Digital Audio             English         192 kbps        2.0 / 48 kHz / 192 kbps / DN -4dB
Dolby Digital Audio             English         192 kbps        2.0 / 48 kHz / 192 kbps / DN -4dB
SUBTITLES:
Codec                           Language        Bitrate         Description
-----                           --------        -------         -----------
Presentation Graphics           English         0,096 kbps
Presentation Graphics           Arabic          0,096 kbps
Presentation Graphics           Bulgarian       0,096 kbps
Presentation Graphics           Croatian        0,096 kbps
Presentation Graphics           Czech           0,096 kbps
Presentation Graphics           Greek           0,096 kbps
Presentation Graphics           Hebrew          0,096 kbps
Presentation Graphics           Hungarian       0,096 kbps
Presentation Graphics           Icelandic       0,096 kbps
Presentation Graphics           Korean          0,096 kbps
Presentation Graphics           Polish          0,096 kbps
Presentation Graphics           Portuguese      0,096 kbps
Presentation Graphics           Romanian        0,096 kbps
Presentation Graphics           Serbian         0,096 kbps
Presentation Graphics           Slovenian       0,096 kbps
Presentation Graphics           Turkish         0,096 kbps
FILES:
Name            Time In         Length          Size            Total Bitrate
----            -------         ------          ----            -------------
00008.M2TS      0:00:00.000     0:02:26.312     161 482 752     8 829
CHAPTERS:
Number          Time In         Length          Avg Video Rate  Max 1-Sec Rate  Max 1-Sec Time  Max 5-Sec Rate  Max 5-Sec Time  Max 10Sec Rate  Max 10Sec Time  Avg Frame Size  Max Frame Size  Max Frame Time
------          -------         ------          --------------  --------------  --------------  --------------  --------------  --------------  --------------  --------------  --------------  --------------
1               0:00:00.000     0:02:26.312     6 993 kbps      10 378 kbps     00:00:21.721    9 188 kbps      00:00:20.720    8 337 kbps      00:00:19.302    36 435 bytes    134 716 bytes   00:02:23.126
STREAM DIAGNOSTICS:
File            PID             Type            Codec           Language                Seconds                 Bitrate                 Bytes           Packets
----            ---             ----            -----           --------                --------------          --------------          -------------   -----
00008.M2TS      4113 (0x1011)   0x02            MPEG-2                                  146,213                 6 997                   127 888 184     697 097
00008.M2TS      4352 (0x1100)   0x81            AC3             eng (English)           146,213                 192                     3 512 064       22 865
00008.M2TS      4353 (0x1101)   0x81            AC3             eng (English)           146,213                 192                     3 512 064       22 865
00008.M2TS      4354 (0x1102)   0x81            AC3             eng (English)           146,213                 192                     3 512 064       22 865
00008.M2TS      4355 (0x1103)   0x81            AC3             eng (English)           146,213                 192                     3 512 064       22 865
00008.M2TS      4356 (0x1104)   0x81            AC3             eng (English)           146,213                 192                     3 512 064       22 865
00008.M2TS      4357 (0x1105)   0x81            AC3             eng (English)           146,213                 192                     3 512 064       22 865
00008.M2TS      4608 (0x1200)   0x90            PGS             eng (English)           146,213                 0                       1 754           17
00008.M2TS      4609 (0x1201)   0x90            PGS             kor (Korean)            146,213                 0                       1 754           17
00008.M2TS      4610 (0x1202)   0x90            PGS             por (Portuguese)        146,213                 0                       1 754           17
00008.M2TS      4611 (0x1203)   0x90            PGS             ara (Arabic)            146,213                 0                       1 754           17
00008.M2TS      4612 (0x1204)   0x90            PGS             bul (Bulgarian)         146,213                 0                       1 754           17
00008.M2TS      4613 (0x1205)   0x90            PGS             hrv (Croatian)          146,213                 0                       1 754           17
00008.M2TS      4614 (0x1206)   0x90            PGS             ces (Czech)             146,213                 0                       1 754           17
00008.M2TS      4615 (0x1207)   0x90            PGS             ell (Greek)             146,213                 0                       1 754           17
00008.M2TS      4616 (0x1208)   0x90            PGS             heb (Hebrew)            146,213                 0                       1 754           17
00008.M2TS      4617 (0x1209)   0x90            PGS             hun (Hungarian)         146,213                 0                       1 754           17
00008.M2TS      4618 (0x120A)   0x90            PGS             isl (Icelandic)         146,213                 0                       1 754           17
00008.M2TS      4619 (0x120B)   0x90            PGS             pol (Polish)            146,213                 0                       1 754           17
00008.M2TS      4620 (0x120C)   0x90            PGS             ron (Romanian)          146,213                 0                       1 754           17
00008.M2TS      4621 (0x120D)   0x90            PGS             srp (Serbian)           146,213                 0                       1 754           17
00008.M2TS      4622 (0x120E)   0x90            PGS             slv (Slovenian)         146,213                 0                       1 754           17
00008.M2TS      4623 (0x120F)   0x90            PGS             tur (Turkish)           146,213                 0                       1 754           17
QUICK SUMMARY:
Disc Title: The_DEPARTED_BD_BLUEBIRD
Disc Size: 36 232 261 880 bytes
Protection: AACS
BD-Java: No
Playlist: 00006.MPLS
Size: 161 482 752 bytes
Length: 0:02:26
Total Bitrate: 8,83 Mbps
Video: MPEG-2 Video / 6993 kbps / 480i / 29,970 fps / 16:9
Audio: English / Dolby Digital Audio / 2.0 / 48 kHz / 192 kbps / DN -4dB
Audio: English / Dolby Digital Audio / 2.0 / 48 kHz / 192 kbps / DN -4dB
Audio: English / Dolby Digital Audio / 2.0 / 48 kHz / 192 kbps / DN -4dB
Audio: English / Dolby Digital Audio / 2.0 / 48 kHz / 192 kbps / DN -4dB
Audio: English / Dolby Digital Audio / 2.0 / 48 kHz / 192 kbps / DN -4dB
Audio: English / Dolby Digital Audio / 2.0 / 48 kHz / 192 kbps / DN -4dB
Subtitle: English / 0,096 kbps
Subtitle: Arabic / 0,096 kbps
Subtitle: Bulgarian / 0,096 kbps
Subtitle: Croatian / 0,096 kbps
Subtitle: Czech / 0,096 kbps
Subtitle: Greek / 0,096 kbps
Subtitle: Hebrew / 0,096 kbps
Subtitle: Hungarian / 0,096 kbps
Subtitle: Icelandic / 0,096 kbps
Subtitle: Korean / 0,096 kbps
Subtitle: Polish / 0,096 kbps
Subtitle: Portuguese / 0,096 kbps
Subtitle: Romanian / 0,096 kbps
Subtitle: Serbian / 0,096 kbps
Subtitle: Slovenian / 0,096 kbps
Subtitle: Turkish / 0,096 kbps
********************
PLAYLIST: 00013.MPLS
********************
Total   Video
Title                                                           Codec   Length  Movie Size      Disc Size       Bitrate Bitrate Main Audio Track                          Secondary Audio Track
-----                                                           ------  ------- --------------  --------------  ------- ------- ------------------                        ---------------------
00013.MPLS                                                      VC-1    0:00:50 28 870 656      36 232 261 880  4,61    4,35
DISC INFO:
Disc Title:     The_DEPARTED_BD_BLUEBIRD
Disc Size:      36 232 261 880 bytes
Protection:     AACS
BD-Java:        No
BDInfo:         0.5.5
PLAYLIST REPORT:
Name:                   00013.MPLS
Length:                 0:00:50 (h:m:s)
Size:                   28 870 656 bytes
Total Bitrate:          4,61 Mbps
VIDEO:
Codec                   Bitrate             Description
-----                   -------             -----------
VC-1 Video              4351 kbps           1080p / 23,976 fps / 16:9 / Advanced Profile 3
FILES:
Name            Time In         Length          Size            Total Bitrate
----            -------         ------          ----            -------------
00013.M2TS      0:00:00.000     0:00:50.049     28 870 656      4 615
CHAPTERS:
Number          Time In         Length          Avg Video Rate  Max 1-Sec Rate  Max 1-Sec Time  Max 5-Sec Rate  Max 5-Sec Time  Max 10Sec Rate  Max 10Sec Time  Avg Frame Size  Max Frame Size  Max Frame Time
------          -------         ------          --------------  --------------  --------------  --------------  --------------  --------------  --------------  --------------  --------------  --------------
1               0:00:00.000     0:00:10.009     4 222 kbps      6 813 kbps      00:00:09.008    4 463 kbps      00:00:05.004    4 017 kbps      00:00:00.000    21 918 bytes    305 841 bytes   00:00:10.009
2               0:00:10.009     0:00:10.009     4 595 kbps      7 230 kbps      00:00:19.018    5 048 kbps      00:00:15.014    4 595 kbps      00:00:10.010    23 956 bytes    305 941 bytes   00:00:14.681
3               0:00:20.019     0:00:10.009     4 018 kbps      6 340 kbps      00:00:29.028    4 418 kbps      00:00:25.024    4 018 kbps      00:00:20.020    20 949 bytes    267 434 bytes   00:00:21.771
4               0:00:30.029     0:00:10.009     3 571 kbps      6 050 kbps      00:00:39.038    3 971 kbps      00:00:35.034    3 571 kbps      00:00:30.029    18 618 bytes    267 545 bytes   00:00:40.039
5               0:00:40.039     0:00:10.009     5 351 kbps      6 654 kbps      00:00:46.296    5 866 kbps      00:00:44.043    0 kbps          00:00:00.000    28 013 bytes    367 931 bytes   00:00:47.630
STREAM DIAGNOSTICS:
File            PID             Type            Codec           Language                Seconds                 Bitrate                 Bytes           Packets
----            ---             ----            -----           --------                --------------          --------------          -------------   -----
00013.M2TS      4113 (0x1011)   0xEA            VC-1                                    49,967                  4 359                   27 222 928      148 673
QUICK SUMMARY:
Disc Title: The_DEPARTED_BD_BLUEBIRD
Disc Size: 36 232 261 880 bytes
Protection: AACS
BD-Java: No
Playlist: 00013.MPLS
Size: 28 870 656 bytes
Length: 0:00:50
Total Bitrate: 4,61 Mbps
Video: VC-1 Video / 4351 kbps / 1080p / 23,976 fps / 16:9 / Advanced Profile 3
********************
PLAYLIST: 00007.MPLS
********************
Total   Video
Title                                                           Codec   Length  Movie Size      Disc Size       Bitrate Bitrate Main Audio Track                          Secondary Audio Track
-----                                                           ------  ------- --------------  --------------  ------- ------- ------------------                        ---------------------
00007.MPLS                                                      VC-1    0:00:30 19 943 424      36 232 261 880  5,31    5,02
DISC INFO:
Disc Title:     The_DEPARTED_BD_BLUEBIRD
Disc Size:      36 232 261 880 bytes
Protection:     AACS
BD-Java:        No
BDInfo:         0.5.5
PLAYLIST REPORT:
Name:                   00007.MPLS
Length:                 0:00:30 (h:m:s)
Size:                   19 943 424 bytes
Total Bitrate:          5,31 Mbps
VIDEO:
Codec                   Bitrate             Description
-----                   -------             -----------
VC-1 Video              5020 kbps           1080p / 23,976 fps / 16:9 / Advanced Profile 3
FILES:
Name            Time In         Length          Size            Total Bitrate
----            -------         ------          ----            -------------
00003.M2TS      0:00:00.000     0:00:30.029     19 943 424      5 313
CHAPTERS:
Number          Time In         Length          Avg Video Rate  Max 1-Sec Rate  Max 1-Sec Time  Max 5-Sec Rate  Max 5-Sec Time  Max 10Sec Rate  Max 10Sec Time  Avg Frame Size  Max Frame Size  Max Frame Time
------          -------         ------          --------------  --------------  --------------  --------------  --------------  --------------  --------------  --------------  --------------  --------------
1               0:00:00.000     0:00:10.009     4 169 kbps      6 290 kbps      00:00:09.008    4 359 kbps      00:00:05.004    3 965 kbps      00:00:00.000    21 647 bytes    255 914 bytes   00:00:05.839
2               0:00:10.009     0:00:10.009     5 503 kbps      8 188 kbps      00:00:19.018    6 127 kbps      00:00:15.014    5 503 kbps      00:00:10.010    28 690 bytes    331 420 bytes   00:00:11.761
3               0:00:20.019     0:00:10.009     5 387 kbps      6 710 kbps      00:00:24.274    5 921 kbps      00:00:23.189    0 kbps          00:00:00.000    28 201 bytes    392 595 bytes   00:00:25.275
STREAM DIAGNOSTICS:
File            PID             Type            Codec           Language                Seconds                 Bitrate                 Bytes           Packets
----            ---             ----            -----           --------                --------------          --------------          -------------   -----
00003.M2TS      4113 (0x1011)   0xEA            VC-1                                    29,947                  5 034                   18 842 437      102 843
QUICK SUMMARY:
Disc Title: The_DEPARTED_BD_BLUEBIRD
Disc Size: 36 232 261 880 bytes
Protection: AACS
BD-Java: No
Playlist: 00007.MPLS
Size: 19 943 424 bytes
Length: 0:00:30
Total Bitrate: 5,31 Mbps
Video: VC-1 Video / 5020 kbps / 1080p / 23,976 fps / 16:9 / Advanced Profile 3

Премьеры, награды:


26 сентября 2006 США
4 октября 2006 Бразилия
4 октября 2006 Филиппины
5 октября 2006 Россия
6 октября 2006 Великобритания
6 октября 2006 Гонконг
6 октября 2006 США
**********************************
Оскар, 2007 год
Победитель (4):
* Лучший фильм
* Лучший режиссер (Мартин Скорсезе)
* Лучший адаптированный сценарий
* Лучший монтаж
Номинации (1):
* Лучшая мужская роль второго плана (Марк Уолберг)
Золотой глобус, 2007 год
Победитель (1):
* Лучший режиссер (Мартин Скорсезе)
Номинации (5):
* Лучший фильм (драма)
* Лучшая мужская роль (драма) (Леонардо ДиКаприо)
* Лучшая мужская роль второго плана (Джек Николсон)
* Лучшая мужская роль второго плана (Марк Уолберг)
* Лучший сценарий
Премия канала «MTV», 2007 год
Победитель (1):
* Лучший злодей (Джек Николсон)
Британская академия, 2007 год
Номинации (6):
* Лучший фильм
* Лучшая мужская роль (Леонардо ДиКаприо)
* Лучшая мужская роль второго плана (Джек Николсон)
* Лучший адаптированный сценарий
* Лучший монтаж
* Премия имени Дэвида Лина за достижения в режиссуре (Мартин Скорсезе)
Жорж, 2007 год
Номинации (1):
* Лучший высокобюджетный/зрелищный фильм


бюджет $90 000 000
сборы в США $132 384 315
сборы в мире + $157 463 039 = $289 847 354
сборы в России $1 846 191
DVD в США $132 740 980
зрители
США 20.1 млн. Великобритания 2.62 млн. Испания 1.83 млн.
премьера (мир) 26 сентября 2006
премьера (РФ) 5 октября 2006, «Централ Партнершип»
релиз на DVD 4 июня 2009
Релиз от: Релиз группа :

Скриншоты меню:

Скриншоты:


[Profile]  [PM] 
Display posts:    
Reply to topic

Current time is: 25-May 20:51

All times are UTC + 2



You cannot post new topics in this forum
You cannot reply to topics in this forum
You cannot edit your posts in this forum
You cannot delete your posts in this forum
You cannot vote in polls in this forum
You cannot attach files in this forum
You cannot download files in this forum