Оно / It Follows (Дэвид Роберт Митчелл / David Robert Mitchell) [2014, США, ужасы, фэнтези, триллер, детектив, BDRip-AVC] Dub + Original Eng + Sub (Rus, Eng)

Reply to topic
 
Author
Message

Satyr ®

Online

Gender: Unknown

Longevity: 11 years

Posts: 15401

Reputation: 55 [+] [-]

Satyr · Post 22-Feb-2017 14:10

[Quote] 

Оно / It Follows- Страна: США
Жанр: ужасы, фэнтези, триллер, детектив
Год выпуска: 2014
Продолжительность: 01:40:31
Перевод: Профессиональный (дублированный)
Cубтитры: русские, английские
Оригинальная аудиодорожка: английский
Режиссер: Дэвид Роберт Митчелл / David Robert Mitchell
В ролях: Кейр Гилкрист, Лорен Басс, Оливия Луккарди, Лили Сепе, Майка Монро, Джейк Вири, Дэниэл Дзоватто, Чарльз Гертнер, Бэйли Спрай
Описание: После сексуальной связи 19-летнюю девушку по имени Джей начинают мучать странные видения и непреодолимое чувство того, что кто-то или что-то за ней следит.
Сэмпл: http://sendfile.su/1310489

Качество видео: BDRip-AVC (IT_FOLLOWS_2014_BD-Remux_HDCLUB)
Формат видео: MKV
Видео: x264, 1152x482 (2.40:1) 23,976 fps, ~2103 kbps, 0,158 bit/pixel
Аудио 1: 48 kHz, AC3 Dolby Digital, 3/2 (L,C,R,l,r) + LFE ch, ~384 kbps [русский, iTunes Russia]
Аудио 2: 48 kHz, AC3 Dolby Digital, 3/2 (L,C,R,l,r) + LFE ch, ~448 kbps [английский]
Формат субтитров: softsub (SRT)

MediaInfo

General
Unique ID : 173042174460724748261767658131377339069 (0x822EB5E62F1A2DBA86D86878AE23BABD)
Format : Matroska
Format version : Version 4 / Version 2
File size : 2.05 GiB
Duration : 1h 40mn
Overall bit rate : 2 930 Kbps
Encoded date : UTC 2017-02-19 12:23:16
Writing application : mkvmerge v9.8.0 ('Kuglblids') 64bit
Writing library : libebml v1.3.4 + libmatroska v1.4.5
Cover : Yes
Attachments : cover.jpg
Video #1
ID : 1
Format : AVC
Format/Info : Advanced Video Codec
Format profile : High@L4.1
Format settings, CABAC : Yes
Format settings, ReFrames : 11 frames
Codec ID : V_MPEG4/ISO/AVC
Duration : 1h 40mn
Bit rate : 2 103 Kbps
Width : 1 152 pixels
Height : 482 pixels
Display aspect ratio : 2.40:1
Frame rate mode : Constant
Frame rate : 23.976 (24000/1001) fps
Color space : YUV
Chroma subsampling : 4:2:0
Bit depth : 8 bits
Scan type : Progressive
Bits/(Pixel*Frame) : 0.158
Stream size : 1.47 GiB (72%)
Writing library : x264 core 148 r2638 7599210
Encoding settings : cabac=1 / ref=11 / deblock=1:-3:-2 / analyse=0x3:0x133 / me=umh / subme=10 / psy=1 / psy_rd=1.00:0.00 / mixed_ref=1 / me_range=32 / chroma_me=1 / trellis=2 / 8x8dct=1 / cqm=0 / deadzone=21,11 / fast_pskip=0 / chroma_qp_offset=-2 / threads=6 / lookahead_threads=1 / sliced_threads=0 / nr=0 / decimate=1 / interlaced=0 / bluray_compat=0 / constrained_intra=0 / bframes=14 / b_pyramid=2 / b_adapt=2 / b_bias=0 / direct=1 / weightb=1 / open_gop=0 / weightp=2 / keyint=250 / keyint_min=23 / scenecut=40 / intra_refresh=0 / rc=2pass / mbtree=0 / bitrate=2103 / ratetol=1.0 / qcomp=0.65 / qpmin=0 / qpmax=69 / qpstep=4 / cplxblur=20.0 / qblur=0.5 / ip_ratio=1.40 / pb_ratio=1.30 / aq=3:0.90
Language : English
Default : Yes
Forced : No
Audio #2
ID : 2
Format : AC-3
Format/Info : Audio Coding 3
Mode extension : CM (complete main)
Format settings, Endianness : Big
Codec ID : A_AC3
Duration : 1h 40mn
Bit rate mode : Constant
Bit rate : 384 Kbps
Channel(s) : 6 channels
Channel positions : Front: L C R, Side: L R, LFE
Sampling rate : 48.0 KHz
Frame rate : 31.250 fps (1536 spf)
Compression mode : Lossy
Stream size : 275 MiB (13%)
Language : Russian
Default : Yes
Forced : No
Audio #3
ID : 3
Format : AC-3
Format/Info : Audio Coding 3
Mode extension : CM (complete main)
Format settings, Endianness : Big
Codec ID : A_AC3
Duration : 1h 40mn
Bit rate mode : Constant
Bit rate : 448 Kbps
Channel(s) : 6 channels
Channel positions : Front: L C R, Side: L R, LFE
Sampling rate : 48.0 KHz
Frame rate : 31.250 fps (1536 spf)
Compression mode : Lossy
Stream size : 321 MiB (15%)
Language : English
Default : No
Forced : No
Text #4
ID : 4
Format : UTF-8
Codec ID : S_TEXT/UTF8
Codec ID/Info : UTF-8 Plain Text
Duration : 1h 34mn
Bit rate : 38 bps
Count of elements : 549
Stream size : 26.6 KiB (0%)
Language : Russian
Default : No
Forced : No
Text #5
ID : 5
Format : UTF-8
Codec ID : S_TEXT/UTF8
Codec ID/Info : UTF-8 Plain Text
Duration : 1h 33mn
Bit rate : 23 bps
Count of elements : 651
Stream size : 16.2 KiB (0%)
Language : English
Default : No
Forced : No
Text #6
ID : 6
Format : UTF-8
Codec ID : S_TEXT/UTF8
Codec ID/Info : UTF-8 Plain Text
Duration : 1h 33mn
Bit rate : 23 bps
Count of elements : 525
Stream size : 16.3 KiB (0%)
Language : German
Default : No
Forced : No

лог

raw [info]: 1152x482p 1:1 @ 24000/1001 fps (cfr)
x264 [info]: using SAR=1/1
x264 [info]: using cpu capabilities: MMX2 SSE2Fast SSSE3 SSE4.2 AVX XOP FMA4 FMA3 LZCNT BMI1
x264 [info]: profile High, level 4.1
x264 [info]: frame I:905 Avg QP:13.62 size: 91547
x264 [info]: frame P:28210 Avg QP:16.60 size: 24534
x264 [info]: frame B:114928 Avg QP:18.41 size: 6967
x264 [info]: consecutive B-frames: 1.5% 2.4% 6.3% 11.8% 14.8% 44.9% 5.5% 1.7% 2.9% 0.7% 1.4% 1.9% 1.5% 0.4% 2.2%
x264 [info]: mb I I16..4: 7.7% 70.9% 21.4%
x264 [info]: mb P I16..4: 1.6% 8.8% 1.7% P16..4: 38.5% 22.9% 17.0% 0.7% 0.3% skip: 8.5%
x264 [info]: mb B I16..4: 0.1% 0.7% 0.2% B16..8: 36.0% 11.2% 2.7% direct: 5.4% skip:43.6% L0:46.5% L1:43.6% BI: 9.8%
x264 [info]: 8x8 transform intra:71.7% inter:60.0%
x264 [info]: coded y,uvDC,uvAC intra: 74.5% 78.7% 59.9% inter: 19.9% 19.2% 3.5%
x264 [info]: i16 v,h,dc,p: 38% 16% 13% 34%
x264 [info]: i8 v,h,dc,ddl,ddr,vr,hd,vl,hu: 15% 10% 12% 8% 11% 10% 11% 10% 12%
x264 [info]: i4 v,h,dc,ddl,ddr,vr,hd,vl,hu: 30% 8% 7% 7% 10% 9% 10% 8% 11%
x264 [info]: i8c dc,h,v,p: 42% 27% 20% 11%
x264 [info]: Weighted P-Frames: Y:7.5% UV:4.1%
x264 [info]: ref P L0: 43.6% 9.0% 17.4% 7.3% 5.8% 4.5% 3.9% 2.4% 2.3% 1.9% 1.8% 0.2% 0.0%
x264 [info]: ref B L0: 63.6% 13.6% 7.7% 4.1% 3.2% 2.7% 2.2% 1.5% 0.9% 0.4%
x264 [info]: ref B L1: 90.0% 10.0%
x264 [info]: kb/s:2098.20
x264 [total]: encoded 144043 frames, 8.66 fps, 2098.20 kb/s

Скриншоты


[Profile]  [PM] 
Display posts:    
Reply to topic

Current time is: 01-Dec 04:37

All times are UTC + 2



You cannot post new topics in this forum
You cannot reply to topics in this forum
You cannot edit your posts in this forum
You cannot delete your posts in this forum
You cannot vote in polls in this forum
You cannot attach files in this forum
You cannot download files in this forum